+14

Анчартед: На картах не значится / Uncharted (2022) UHD WEB-DL-HEVC 2160p от селезень | 4K | HDR | P

Информация о фильме
Название: Анчартед: На картах не значится
Оригинальное название: Uncharted
Год выхода: 2022
Жанр: боевик, приключения
Режиссер: Рубен Фляйшер
В ролях: Том Холланд, Марк Уолберг, Антонио Бандерас, София Тейлор Али, Тати Габриэль, Стивен Уоддингтон, Пинги Моли, Тирнан Джонс, Руди Панкоу, Хесус Эвита

О фильме: Два искателя приключений Нейтан Дрейк и Виктор Салливан по прозвищу Салли отправляются на поиски величайшего сокровища мира. Кроме того, они надеются найти улики, которые приведут их к давно потерянному брату Нейтана.

Страна: США, Испания
Студия: Arad Productions, Atlas Entertainment, Ayuntamiento de Madrid, Columbia Pictures Corporation, Naughty Dog, PlayStation Productions, Sony Computer Entertainment America
Продолжительность: 01:55:56
Перевод: Профессиональный многоголосый | Jaskier

Качество: WEB-DL 2160p
Видео: 3840x2160 at 23.976 fps, MPEG-H HEVC HDR, ~ 24400 kbps avg
Аудио #01: 48 kHz, AC3, 5.1, 448 Kbps | Профессиональный многоголосый | Jaskier | RUS |Анчартед: На картах не значится / Uncharted (2022) UHD WEB-DL-HEVC 2160p от селезень | 4K | HDR | P
Аудио #02: 48 kHz, E-AC3+Atmos, 5.1, 768 Kbps | Оригинал | ENG |
Субтитры: Русские (Forced, full), английские

Анчартед: На картах не значится / Uncharted (2022) UHD WEB-DL-HEVC 2160p от селезень | 4K | HDR | P

Авторизуйтесь для получения доступа к скачиванию

Нет аккаунта? Регистрация открыта и займёт меньше минуты

Вход Регистрация

General
Unique ID : 226413276994842275220029367869561192232 (0xAA559C6A4EABF65281ADC1BD52D13F28)
Complete name : D:\Video1\Uncharted.2022.WEB-DL.2160p.HDR.seleZen.mkv
Format : Matroska
Format version : Version 4
File size : 20.7 GiB
Duration : 1 h 55 min
Overall bit rate : 25.6 Mb/s
Movie name : Uncharted 2022 from seleZen
Encoded date : UTC 2022-04-26 16:07:36
Writing application : mkvmerge v59.0.0 ('Shining Star') 64-bit
Writing library : libebml v1.4.2 + libmatroska v1.6.4

Video
ID : 1
Format : HEVC
Format/Info : High Efficiency Video Coding
Format profile : Main [email protected]@High
HDR format : SMPTE ST 2086, HDR10 compatible
Codec ID : V_MPEGH/ISO/HEVC
Duration : 1 h 55 min
Bit rate : 24.4 Mb/s
Width : 3 840 pixels
Height : 2 160 pixels
Display aspect ratio : 16:9
Frame rate mode : Constant
Frame rate : 23.976 (24000/1001) FPS
Color space : YUV
Chroma subsampling : 4:2:0 (Type 2)
Bit depth : 10 bits
Bits/(Pixel*Frame) : 0.123
Stream size : 19.7 GiB (95%)
Language : English
Default : Yes
Forced : No
Color range : Limited
Color primaries : BT.2020
Transfer characteristics : PQ
Matrix coefficients : BT.2020 non-constant
Mastering display color pri : Display P3
Mastering display luminance : min: 0.0001 cd/m2, max: 1000 cd/m2
Maximum Content Light Level : 995 cd/m2
Maximum Frame-Average Light : 287 cd/m2

Audio #1
ID : 2
Format : AC-3
Format/Info : Audio Coding 3
Commercial name : Dolby Digital
Codec ID : A_AC3
Duration : 1 h 55 min
Bit rate mode : Constant
Bit rate : 448 kb/s
Channel(s) : 6 channels
Channel layout : L R C LFE Ls Rs
Sampling rate : 48.0 kHz
Frame rate : 31.250 FPS (1536 SPF)
Compression mode : Lossy
Stream size : 371 MiB (2%)
Title : MVO [Jaskier]
Language : Russian
Service kind : Complete Main
Default : Yes
Forced : Yes

Audio #2
ID : 3
Format : E-AC-3 JOC
Format/Info : Enhanced AC-3 with Joint Object Coding
Commercial name : Dolby Digital Plus with Dolby Atmos
Codec ID : A_EAC3
Duration : 1 h 55 min
Bit rate mode : Constant
Bit rate : 768 kb/s
Channel(s) : 6 channels
Channel layout : L R C LFE Ls Rs
Sampling rate : 48.0 kHz
Frame rate : 31.250 FPS (1536 SPF)
Compression mode : Lossy
Stream size : 637 MiB (3%)
Title : Original
Language : English
Service kind : Complete Main
Default : No
Forced : No
Complexity index : 16
Number of dynamic objects : 15
Bed channel count : 1 channel
Bed channel configuration : LFE

Text #1
ID : 4
Format : UTF-8
Codec ID : S_TEXT/UTF8
Codec ID/Info : UTF-8 Plain Text
Duration : 1 h 41 min
Bit rate : 2 b/s
Count of elements : 53
Stream size : 2.11 KiB (0%)
Title : Forced
Language : Russian
Default : Yes
Forced : Yes

Text #2
ID : 5
Format : UTF-8
Codec ID : S_TEXT/UTF8
Codec ID/Info : UTF-8 Plain Text
Duration : 1 h 47 min
Bit rate : 83 b/s
Count of elements : 1342
Stream size : 65.5 KiB (0%)
Title : Full [MENINSUB]
Language : Russian
Default : No
Forced : No

Text #3
ID : 6
Format : UTF-8
Codec ID : S_TEXT/UTF8
Codec ID/Info : UTF-8 Plain Text
Duration : 4 min 20 s
Bit rate : 17 b/s
Count of elements : 23
Stream size : 573 Bytes (0%)
Title : Forced
Language : English
Default : No
Forced : No

Text #4
ID : 7
Format : UTF-8
Codec ID : S_TEXT/UTF8
Codec ID/Info : UTF-8 Plain Text
Duration : 1 h 47 min
Bit rate : 55 b/s
Count of elements : 1330
Stream size : 43.4 KiB (0%)
Title : Full
Language : English
Default : No
Forced : No

Text #5
ID : 8
Format : UTF-8
Codec ID : S_TEXT/UTF8
Codec ID/Info : UTF-8 Plain Text
Duration : 1 h 48 min
Bit rate : 64 b/s
Count of elements : 1602
Stream size : 51.3 KiB (0%)
Title : SDH
Language : English
Default : No
Forced : No

Menu
00:00:00.000 : Chapter 01
00:08:15.516 : Chapter 02
00:12:22.429 : Chapter 03
00:18:55.906 : Chapter 04
00:24:29.239 : Chapter 05
00:31:34.122 : Chapter 06
00:36:13.484 : Chapter 07
00:41:26.004 : Chapter 08
00:48:04.194 : Chapter 09
00:53:17.424 : Chapter 10
00:59:12.278 : Chapter 11
01:05:52.219 : Chapter 12
01:12:01.964 : Chapter 13
01:17:32.085 : Chapter 14
01:24:59.407 : Chapter 15
01:34:40.863 : Chapter 16
01:49:37.342 : Chapter 17

Другие фильмы
Комментарии:

...
NeruDEF 26 апреля 2022 20:22
0

А куда убежали то скачавшие? Или тут типа скачал, а на остальных клал?

Информация
Посетители, находящиеся в группе Гости, не могут оставлять комментарии к данной публикации.
Самый популярный релиз недели

Кино копилка
...
Какую тему вы используете?

Реклама
Последние комментарии
...

Men38

22 марта 2023 04:49

...

Maydanuk

21 марта 2023 20:48

...

eugeneh

21 марта 2023 10:40

...

Robot

20 марта 2023 09:12

...

ИгорьА

19 марта 2023 13:12

Реклама