+14

Проект «Адам» / Имя наше - Адам / The Adam Project (2022) UHD WEB-DL-HEVC 2160p от селезень | 4K | HDR | Netflix

Информация о фильме
Название: Проект «Адам»
Оригинальное название: The Adam Project
Год выхода: 2022
Жанр: фантастика, боевик, комедия, приключения
Режиссер: Шон Леви
В ролях: Райан Рейнольдс, Уокер Скобелл, Марк Руффало, Дженнифер Гарнер, Зои Салдана, Кэтрин Кинер, Алекс Маллари мл., Брэкстон Бьеркен, Касра Вонг, Люси Гест

О фильме: Путешествующий во времени пилот Адам Рид совершает аварийную посадку в 2022 году и вместе с собой 12-летним отправляется спасать будущее.

Страна: США
Студия: 21 Laps Entertainment, Maximum Effort, Skydance Productions
Продолжительность: 01:46:36
Перевод: Дублированный | Netflix

Качество: WEB-DL 2160p
Видео: 3840x2160 at 24.000 fps, MPEG-H HEVC HDR, ~ 15100 kbps avg
Аудио #01: 48 kHz, AC3, 5.1, 448 Kbps | Дублированный | Netflix | RUS |Проект «Адам» / Имя наше - Адам / The Adam Project (2022) UHD WEB-DL-HEVC 2160p от селезень | 4K | HDR | Netflix
Аудио #02: 48 kHz, E-AC3+Atmos, 5.1, 768 Kbps | Дублированный | Netflix | RUS |
Аудио #03: 48 kHz, E-AC3, 5.1, 640 Kbps | Дублированный | Netflix | UKR |
Аудио #04: 48 kHz, E-AC3+Atmos, 5.1, 768 Kbps | Оригинал | ENG |
Субтитры: Русские (Forced, full), украинские (Forced, Full), английские

Проект «Адам» / Имя наше - Адам / The Adam Project (2022) UHD WEB-DL-HEVC 2160p от селезень | 4K | HDR | Netflix

Авторизуйтесь для получения доступа к скачиванию

Нет аккаунта? Регистрация открыта и займёт меньше минуты

Вход Регистрация

General
Unique ID : 211532080782305535536133140027407094109 (0x9F2398CBAADC06C586CB382681BC515D)
Complete name : D:\Video1\The.Adam.Project.2022.WEB-DL.2160p.HDR.seleZen.mkv
Format : Matroska
Format version : Version 4
File size : 13.0 GiB
Duration : 1 h 46 min
Overall bit rate : 17.4 Mb/s
Movie name : The Adam Project 2022 from seleZen
Encoded date : UTC 2022-05-18 13:01:25
Writing application : mkvmerge v59.0.0 ('Shining Star') 64-bit
Writing library : libebml v1.4.2 + libmatroska v1.6.4

Video
ID : 1
Format : HEVC
Format/Info : High Efficiency Video Coding
Format profile : Main [email protected]@Main
HDR format : SMPTE ST 2086, HDR10 compatible
Codec ID : V_MPEGH/ISO/HEVC
Duration : 1 h 44 min
Bit rate : 15.1 Mb/s
Width : 3 840 pixels
Height : 2 160 pixels
Display aspect ratio : 16:9
Frame rate mode : Constant
Frame rate : 24.000 FPS
Color space : YUV
Chroma subsampling : 4:2:0 (Type 2)
Bit depth : 10 bits
Bits/(Pixel*Frame) : 0.076
Stream size : 11.0 GiB (85%)
Language : English
Default : Yes
Forced : No
Color range : Limited
Color primaries : BT.2020
Transfer characteristics : PQ
Matrix coefficients : BT.2020 non-constant
Mastering display color pri : Display P3
Mastering display luminance : min: 0.0001 cd/m2, max: 1000 cd/m2
Maximum Content Light Level : 1634 cd/m2
Maximum Frame-Average Light : 109 cd/m2

Audio #1
ID : 2
Format : AC-3
Format/Info : Audio Coding 3
Commercial name : Dolby Digital
Codec ID : A_AC3
Duration : 1 h 46 min
Bit rate mode : Constant
Bit rate : 448 kb/s
Channel(s) : 6 channels
Channel layout : L R C LFE Ls Rs
Sampling rate : 48.0 kHz
Frame rate : 31.250 FPS (1536 SPF)
Compression mode : Lossy
Stream size : 342 MiB (3%)
Title : Dub [Netflix]
Language : Russian
Service kind : Complete Main
Default : Yes
Forced : Yes

Audio #2
ID : 3
Format : E-AC-3 JOC
Format/Info : Enhanced AC-3 with Joint Object Coding
Commercial name : Dolby Digital Plus with Dolby Atmos
Codec ID : A_EAC3
Duration : 1 h 46 min
Bit rate mode : Constant
Bit rate : 768 kb/s
Channel(s) : 6 channels
Channel layout : L R C LFE Ls Rs
Sampling rate : 48.0 kHz
Frame rate : 31.250 FPS (1536 SPF)
Compression mode : Lossy
Stream size : 586 MiB (4%)
Title : Dub [Netflix]
Language : Russian
Service kind : Complete Main
Default : No
Forced : No
Complexity index : 16
Number of dynamic objects : 15
Bed channel count : 1 channel
Bed channel configuration : LFE

Audio #3
ID : 4
Format : E-AC-3
Format/Info : Enhanced AC-3
Commercial name : Dolby Digital Plus
Codec ID : A_EAC3
Duration : 1 h 46 min
Bit rate mode : Constant
Bit rate : 640 kb/s
Channel(s) : 6 channels
Channel layout : L R C LFE Ls Rs
Sampling rate : 48.0 kHz
Frame rate : 31.250 FPS (1536 SPF)
Compression mode : Lossy
Stream size : 488 MiB (4%)
Title : Dub [Netflix]
Language : Ukrainian
Service kind : Complete Main
Default : No
Forced : No

Audio #4
ID : 5
Format : E-AC-3 JOC
Format/Info : Enhanced AC-3 with Joint Object Coding
Commercial name : Dolby Digital Plus with Dolby Atmos
Codec ID : A_EAC3
Duration : 1 h 46 min
Bit rate mode : Constant
Bit rate : 768 kb/s
Channel(s) : 6 channels
Channel layout : L R C LFE Ls Rs
Sampling rate : 48.0 kHz
Frame rate : 31.250 FPS (1536 SPF)
Compression mode : Lossy
Stream size : 586 MiB (4%)
Title : Original
Language : English
Service kind : Complete Main
Default : No
Forced : No
Complexity index : 16
Number of dynamic objects : 15
Bed channel count : 1 channel
Bed channel configuration : LFE

Text #1
ID : 6
Format : UTF-8
Codec ID : S_TEXT/UTF8
Codec ID/Info : UTF-8 Plain Text
Duration : 1 h 43 min
Bit rate : 0 b/s
Count of elements : 11
Stream size : 411 Bytes (0%)
Title : Forced
Language : Russian
Default : Yes
Forced : Yes

Text #2
ID : 7
Format : UTF-8
Codec ID : S_TEXT/UTF8
Codec ID/Info : UTF-8 Plain Text
Duration : 1 h 43 min
Bit rate : 96 b/s
Count of elements : 1451
Stream size : 72.8 KiB (0%)
Title : Full
Language : Russian
Default : No
Forced : No

Text #3
ID : 8
Format : UTF-8
Codec ID : S_TEXT/UTF8
Codec ID/Info : UTF-8 Plain Text
Duration : 1 h 43 min
Bit rate : 0 b/s
Count of elements : 13
Stream size : 448 Bytes (0%)
Title : Forced
Language : Ukrainian
Default : No
Forced : No

Text #4
ID : 9
Format : UTF-8
Codec ID : S_TEXT/UTF8
Codec ID/Info : UTF-8 Plain Text
Duration : 1 h 43 min
Bit rate : 94 b/s
Count of elements : 1462
Stream size : 71.3 KiB (0%)
Title : Full
Language : Ukrainian
Default : No
Forced : No

Text #5
ID : 10
Format : UTF-8
Codec ID : S_TEXT/UTF8
Codec ID/Info : UTF-8 Plain Text
Duration : 1 h 35 min
Bit rate : 73 b/s
Count of elements : 1535
Stream size : 51.7 KiB (0%)
Language : English
Default : No
Forced : No

Text #6
ID : 11
Format : UTF-8
Codec ID : S_TEXT/UTF8
Codec ID/Info : UTF-8 Plain Text
Duration : 1 h 42 min
Bit rate : 83 b/s
Count of elements : 1818
Stream size : 62.3 KiB (0%)
Title : SDH
Language : English
Default : No
Forced : No

Другие фильмы
Комментарии:

...
Robot 13 июня 2022 09:31
0

doctorxp, Запустите видео через MPC плеер, устанавливается вместе с klite codec pack. Жмете правую клавишу мыши на самом видео в плеере. Там выбираете Положение и размер кадра. И выбираете Масштабировать в Widescreen или в Ultra Widescreen. Смотрите где будет лучше. И вуаля, все черные полосы пропадают и у вас картинка в полный экран. Полная и не обрезанная. Обрезаны будут лишь черные полосы.

...
doctorxp 12 июня 2022 19:57
0

Robot, так по этому и возник вопрос. У меня монитор 21:9, фильм снят, судя по пропорциям, тоже в 21:9, но в самом видеоряде есть черные полосы, отсюда при просмотре имеем черные полосы сверху и снизу (так как это часть видео) и черные полосы справа и слева, так как видео получается уже 16:9. Итог: видео смотрим как на скрине https://pastenow.ru/H86Q0

...
Robot 12 июня 2022 17:52
0

doctorxp, потому что кроме стандартного аспекта 16:9, есть еще 21:9. На Таких мониторах-телевизорах, кстати, фильмы которые в аспекте 16:9 сделаны, черных полос не будет вообще. Но, если фильм , мультфильм и т.д будет сделан с полным кадром, разрешение 1920x1080 без полос, то на таких мониторах-телевизорах данный вид картинки будет обрезаться сверху и снизу, если включить полный экран. Ну или будут полосы черные не сверху и снизу, а слева и справа. Что сделает картинку меньше. В общем, все расчитано, что бы на разных аспектах хоть как то более менее смотреть. Во многих кинотеатрах аспект именно 21:9, а не 16:9 как в бытовых телевизорах и мониторах. И там, в кинотеатрах, все в полный кадр. Без черных полос. Если бы не было кинотеатров, то и делали бы всегда в полный кадр, для аспекта 16:9. Экраны различаются, от этого такие и форматы. 

...
doctorxp 12 июня 2022 15:16
0

никак не пойму для чего в видеоряд добавляют черные полосы

Информация
Посетители, находящиеся в группе Гости, не могут оставлять комментарии к данной публикации.
Самый популярный релиз недели
RePack от селезень 48.88 Gb ...

Кино копилка
...
Какую тему вы используете?

Реклама
Последние комментарии
...

dembell56

Вчера, 22:22

...

Ponta

Вчера, 17:43

...

Vostorg

Вчера, 02:43

...

Desol

5 декабря 2022 18:21

...

Ponta

5 декабря 2022 17:53

Реклама