+5

Флешбэк / Memory (2022) UHD BDRemux 2160p от селезень | 4K | HDR | D, P, A

Информация о фильме
Название: Флешбэк
Оригинальное название: Memory
Год выхода: 2022
Жанр: боевик, триллер
Режиссер: Мартин Кэмпбелл
В ролях: Лиам Нисон, Гай Пирс, Тадж Атвал, Арольд Торрес, Рэй Фиарон, Моника Беллуччи, Рэй Стивенсон, Миа Санчес, Даниэль Де Бург, Натали Андерсон

О фильме: Алекс Льюис, профессиональный киллер с репутацией, в какой-то момент пошел против ветра и теперь вынужден отбиваться и от ФБР, и от криминального босса. Все потому, что убийца отказался нарушить свой моральный кодекс.

Страна: США
Студия: Arthur Sarkissian Productions, Black Bear Pictures, Camera Hogs, Signature Pictures, Welle Entertainment
Продолжительность: 01:53:38
Перевод(ы):
#1: Дублированный | Велес
#2: Профессиональный многоголосый | TVShows
#3: Авторский | Д. Есарев

Качество: BDRemux 2160p
Видео: 3840x2160 at 23.976 fps, MPEG-H HEVC HDR, ~ 50100 kbps avg
Аудио #01: 48 kHz, AC3, 5.1, 384 Kbps | Дублированный | Велес | RUS |Флешбэк / Memory (2022) UHD BDRemux 2160p от селезень | 4K | HDR | D, P, A
Аудио #02: 48 kHz, AC3, 2.0, 192 Kbps | Профессиональный многоголосый | TVShows | RUS |
Аудио #03: 48 kHz, AC3, 5.1, 384 Kbps | Авторский | Д. Есарев | RUS |
Аудио #04: 48 kHz, DTS-HD MA, 5.1, 3534 Kbps | Оригинал | ENG |
Субтитры: Английские

Флешбэк / Memory (2022) UHD BDRemux 2160p от селезень | 4K | HDR | D, P, A

Авторизуйтесь для получения доступа к скачиванию

Нет аккаунта? Регистрация открыта и займёт меньше минуты

Вход Регистрация

General
Unique ID : 243147433222795201840376127617948036435 (0xB6EC7E0463882086AF847AD4D8C1AD53)
Complete name : E:\Video1\Memory.2022.BDREMUX.2160p.HDR.seleZen.mkv
Format : Matroska
Format version : Version 4
File size : 43.3 GiB
Duration : 1 h 53 min
Overall bit rate mode : Variable
Overall bit rate : 54.5 Mb/s
Movie name : Memory 2022 from seleZen
Encoded date : UTC 2022-09-26 20:51:01
Writing application : mkvmerge v59.0.0 ('Shining Star') 64-bit
Writing library : libebml v1.4.2 + libmatroska v1.6.4

Video
ID : 1
Format : HEVC
Format/Info : High Efficiency Video Coding
Format profile : Main [email protected]@High
HDR format : SMPTE ST 2086, HDR10 compatible
Codec ID : V_MPEGH/ISO/HEVC
Duration : 1 h 53 min
Bit rate : 50.1 Mb/s
Width : 3 840 pixels
Height : 2 160 pixels
Display aspect ratio : 16:9
Frame rate mode : Constant
Frame rate : 23.976 (24000/1001) FPS
Color space : YUV
Chroma subsampling : 4:2:0 (Type 2)
Bit depth : 10 bits
Bits/(Pixel*Frame) : 0.252
Stream size : 39.7 GiB (92%)
Language : German
Default : Yes
Forced : No
Color range : Limited
Color primaries : BT.2020
Transfer characteristics : PQ
Matrix coefficients : BT.2020 non-constant
Mastering display color pri : Display P3
Mastering display luminance : min: 0.0001 cd/m2, max: 1000 cd/m2
Maximum Content Light Level : 1000 cd/m2
Maximum Frame-Average Light : 400 cd/m2

Audio #1
ID : 2
Format : AC-3
Format/Info : Audio Coding 3
Commercial name : Dolby Digital
Codec ID : A_AC3
Duration : 1 h 53 min
Bit rate mode : Constant
Bit rate : 384 kb/s
Channel(s) : 6 channels
Channel layout : L R C LFE Ls Rs
Sampling rate : 48.0 kHz
Frame rate : 31.250 FPS (1536 SPF)
Compression mode : Lossy
Stream size : 312 MiB (1%)
Title : Dub [Veles]
Language : Russian
Service kind : Complete Main
Default : Yes
Forced : Yes

Audio #2
ID : 3
Format : AC-3
Format/Info : Audio Coding 3
Commercial name : Dolby Digital
Codec ID : A_AC3
Duration : 1 h 53 min
Bit rate mode : Constant
Bit rate : 192 kb/s
Channel(s) : 2 channels
Channel layout : L R
Sampling rate : 48.0 kHz
Frame rate : 31.250 FPS (1536 SPF)
Compression mode : Lossy
Stream size : 156 MiB (0%)
Title : MVO [TVShows]
Language : Russian
Service kind : Complete Main
Default : No
Forced : No

Audio #3
ID : 4
Format : AC-3
Format/Info : Audio Coding 3
Commercial name : Dolby Digital
Codec ID : A_AC3
Duration : 1 h 53 min
Bit rate mode : Constant
Bit rate : 384 kb/s
Channel(s) : 6 channels
Channel layout : L R C LFE Ls Rs
Sampling rate : 48.0 kHz
Frame rate : 31.250 FPS (1536 SPF)
Compression mode : Lossy
Stream size : 313 MiB (1%)
Title : AVO [Yesarev]
Language : Russian
Service kind : Complete Main
Default : No
Forced : No

Audio #4
ID : 5
Format : DTS XLL
Format/Info : Digital Theater Systems
Commercial name : DTS-HD Master Audio
Codec ID : A_DTS
Duration : 1 h 53 min
Bit rate mode : Variable
Bit rate : 3 534 kb/s
Channel(s) : 6 channels
Channel layout : C L R Ls Rs LFE
Sampling rate : 48.0 kHz
Frame rate : 93.750 FPS (512 SPF)
Bit depth : 24 bits
Compression mode : Lossless
Stream size : 2.81 GiB (6%)
Title : Original
Language : English
Default : No
Forced : No

Text #1
ID : 6
Format : UTF-8
Codec ID : S_TEXT/UTF8
Codec ID/Info : UTF-8 Plain Text
Duration : 1 h 41 min
Bit rate : 51 b/s
Frame rate : 0.215 FPS
Count of elements : 1307
Stream size : 37.9 KiB (0%)
Title : Full
Language : English
Default : No
Forced : No

Text #2
ID : 7
Format : UTF-8
Codec ID : S_TEXT/UTF8
Codec ID/Info : UTF-8 Plain Text
Duration : 1 h 52 min
Bit rate : 56 b/s
Frame rate : 0.267 FPS
Count of elements : 1799
Stream size : 46.3 KiB (0%)
Title : SDH
Language : English
Default : No
Forced : No

Menu
00:00:00.000 : Глава 01
00:10:03.812 : Глава 02
00:20:26.267 : Глава 03
00:29:08.956 : Глава 04
00:40:49.197 : Глава 05
00:50:36.700 : Глава 06
00:58:23.041 : Глава 07
01:09:30.333 : Глава 08
01:17:18.968 : Глава 09
01:27:06.179 : Глава 10
01:36:17.730 : Глава 11
01:45:18.229 : Глава 12

Другие фильмы
У данной публикации пока нет комментариев.
Будь первым, оставь своё мнение в комментариях!
Информация
Посетители, находящиеся в группе Гости, не могут оставлять комментарии к данной публикации.
Самый популярный релиз недели
RePack от селезень 48.88 Gb ...

Кино копилка
...
Какую тему вы используете?

Реклама
Последние комментарии
...

dembell56

Вчера, 22:22

...

Ponta

Вчера, 17:43

...

Vostorg

Вчера, 02:43

...

Desol

5 декабря 2022 18:21

...

Ponta

5 декабря 2022 17:53

Реклама