+11

Наблюдающий / Watcher (2022) BDRip 720p от DoMiNo & селезень | P, A

Информация о фильме
Название: Наблюдающий
Оригинальное название: Watcher
Год выпуска: 2022
Жанр: Триллер, Драма
Режиссер: Хлоя Окуно
В ролях: Майка Бог Монро, Карл Глусман, Берн Горман, Тудор Петрут, Габриела Бутуч, Мадалина Анеа, Кристина Длеану, Даниэль Фаркас, Даниэль Нута, Иоана Абур, Флавиу Крисан, Стефан Янку, Флориан Гимпу, Лучиан Ионеску, Раду Бунеску

О фильме:
Джулия со своим парнем переезжает в новую квартиру, где девушку начинает преследовать тревожное чувство, что за ней постоянно кто-то следит. Хотя окружающие не придают её беспокойствам значения, вскоре по соседству начинают происходить пугающие события.

Выпущено: США, ОАЭ
Продолжительность: 01:36:14
Перевод 1: Профессиональный (многоголосый, закадровый) | Jaskier
Перевод 2: Авторский (одноголосый закадровый) | М. Яроцкий
Субтитры: Русские (stasslender), английские

Файл
Формат: Matroska
Качество: BDRip 720p
Видео: 1280x640 at 23.976 fps, [email protected], ~2204 kbps
Аудио 1: AC3, 6 ch, ~448 kbps - | Русский | Наблюдающий / Watcher (2022) BDRip 720p от DoMiNo & селезень | P, A | Jaskier
Аудио 2: AC3, 6 ch, ~640 kbps - | Русский | | М. Яроцкий
Аудио 3: AC3, 6 ch, ~640 kbps - | Английский | | Original
Формат субтитров: softsub (SRT)

Наблюдающий / Watcher (2022) BDRip 720p от DoMiNo & селезень | P, A

Авторизуйтесь для получения доступа к скачиванию

Нет аккаунта? Регистрация открыта и займёт меньше минуты

Вход Регистрация

General
Unique ID : 25988406065426249850561440141611099782 (0x138D2F588B5C1AEC9134105B3107E686)
Complete name : D:Watcher.2022.BDRip.720p.x264.seleZen.mkv
Format : Matroska
Format version : Version 4
File size : 2.65 GiB
Duration : 1 h 36 min
Overall bit rate : 3 935 kb/s
Movie name : Watcher.2022.BDRip.720p.x264.seleZen
Encoded date : UTC 2022-09-29 10:44:52
Writing application : mkvmerge v70.0.0 ('Caught A Lite Sneeze') 64-bit
Writing library : libebml v1.4.2 + libmatroska v1.6.4
Cover : Yes
Attachments : cover.jpg / small_cover.jpg

Video
ID : 1
Format : AVC
Format/Info : Advanced Video Codec
Format profile : [email protected]
Format settings : CABAC / 10 Ref Frames
Format settings, CABAC : Yes
Format settings, Reference : 10 frames
Codec ID : V_MPEG4/ISO/AVC
Duration : 1 h 36 min
Bit rate : 2 204 kb/s
Width : 1 280 pixels
Height : 640 pixels
Display aspect ratio : 2.000
Frame rate mode : Constant
Frame rate : 23.976 (24000/1001) FPS
Color space : YUV
Chroma subsampling : 4:2:0
Bit depth : 8 bits
Scan type : Progressive
Bits/(Pixel*Frame) : 0.112
Stream size : 1.48 GiB (56%)
Title : MTeam
Writing library : x264 core 157 r2938 2b00a84 [email protected] Mod
Encoding settings : cabac=1 / ref=10 / deblock=1:-3:-3 / analyse=0x3:0x133 / me=umh / subme=10 / psy=1 / psy_rd=1.05:0.00 / mixed_ref=1 / me_range=32 / chroma_me=1 / trellis=2 / 8x8dct=1 / cqm=0 / deadzone=21,11 / fast_pskip=0 / chroma_qp_offset=-2 / threads=12 / lookahead_threads=2 / sliced_threads=0 / nr=0 / decimate=0 / interlaced=0 / bluray_compat=0 / constrained_intra=0 / bframes=8 / b_pyramid=2 / b_adapt=2 / b_bias=0 / direct=3 / weightb=1 / open_gop=0 / weightp=2 / keyint=250 / keyint_min=24 / scenecut=40 / intra_refresh=0 / rc_lookahead=250 / rc=crf / mbtree=0 / crf=16.8 / qcomp=0.60 / qpmin=0 / qpmax=69 / qpstep=4 / vbv_maxrate=62500 / vbv_bufsize=78125 / crf_max=0.0 / nal_hrd=none / filler=0 / ip_ratio=1.30 / pb_ratio=1.20 / aq=3:0.80
Language : English
Default : Yes
Forced : No
Color range : Limited
Color primaries : BT.709
Matrix coefficients : BT.709

Audio #1
ID : 2
Format : AC-3
Format/Info : Audio Coding 3
Commercial name : Dolby Digital
Codec ID : A_AC3
Duration : 1 h 36 min
Bit rate mode : Constant
Bit rate : 448 kb/s
Channel(s) : 6 channels
Channel layout : L R C LFE Ls Rs
Sampling rate : 48.0 kHz
Frame rate : 31.250 FPS (1536 SPF)
Compression mode : Lossy
Stream size : 308 MiB (11%)
Title : MVO_[Jaskier]
Language : Russian
Service kind : Complete Main
Default : Yes
Forced : Yes

Audio #2
ID : 3
Format : AC-3
Format/Info : Audio Coding 3
Commercial name : Dolby Digital
Codec ID : A_AC3
Duration : 1 h 36 min
Bit rate mode : Constant
Bit rate : 640 kb/s
Channel(s) : 6 channels
Channel layout : L R C LFE Ls Rs
Sampling rate : 48.0 kHz
Frame rate : 31.250 FPS (1536 SPF)
Compression mode : Lossy
Stream size : 441 MiB (16%)
Title : AVO_М.Яроцкий]
Language : Russian
Service kind : Complete Main
Default : No
Forced : No

Audio #3
ID : 4
Format : AC-3
Format/Info : Audio Coding 3
Commercial name : Dolby Digital
Codec ID : A_AC3
Duration : 1 h 36 min
Bit rate mode : Constant
Bit rate : 640 kb/s
Channel(s) : 6 channels
Channel layout : L R C LFE Ls Rs
Sampling rate : 48.0 kHz
Frame rate : 31.250 FPS (1536 SPF)
Compression mode : Lossy
Stream size : 441 MiB (16%)
Title : Original
Language : English
Service kind : Complete Main
Default : No
Forced : No

Text #1
ID : 5
Format : UTF-8
Codec ID : S_TEXT/UTF8
Codec ID/Info : UTF-8 Plain Text
Duration : 1 h 34 min
Bit rate : 41 b/s
Count of elements : 652
Stream size : 28.4 KiB (0%)
Title : Full_[stasslender]
Language : Russian
Default : No
Forced : No

Text #2
ID : 6
Format : UTF-8
Codec ID : S_TEXT/UTF8
Codec ID/Info : UTF-8 Plain Text
Duration : 1 h 25 min
Bit rate : 27 b/s
Count of elements : 648
Stream size : 17.2 KiB (0%)
Title : Full
Language : English
Default : No
Forced : No

Text #3
ID : 7
Format : UTF-8
Codec ID : S_TEXT/UTF8
Codec ID/Info : UTF-8 Plain Text
Duration : 1 h 35 min
Bit rate : 32 b/s
Count of elements : 937
Stream size : 23.0 KiB (0%)
Title : SDH
Language : English
Default : No
Forced : No

Menu
00:00:00.000 : en:Chapter 01
00:14:48.387 : en:Chapter 02
00:25:26.233 : en:Chapter 03
00:41:10.343 : en:Chapter 04
00:50:11.717 : en:Chapter 05
01:01:54.085 : en:Chapter 06
01:16:22.495 : en:Chapter 07
01:31:22.102 : en:Chapter 08

Другие фильмы
Комментарии:

...
zombitto 29 сентября 2022 16:25
0

вот вроде проходной фильм, на троечку, но чёт затянул прям

Информация
Посетители, находящиеся в группе Гости, не могут оставлять комментарии к данной публикации.
Самый популярный релиз недели
RePack от селезень 48.88 Gb ...

Кино копилка
...
Какую тему вы используете?

Реклама
Последние комментарии
...

dembell56

Вчера, 22:22

...

Ponta

Вчера, 17:43

...

Vostorg

Вчера, 02:43

...

Desol

5 декабря 2022 18:21

...

Ponta

5 декабря 2022 17:53

Реклама