+16

Суперпитомцы / DC League of Super-Pets (2022) HDRip-AVC от DoMiNo & селезень | D, P | Лицензия

Информация о фильме
Название: Суперпитомцы
Оригинальное название: DC League of Super-Pets
Год выхода: 2022
Жанр: Мультфильм, фантастика, фэнтези, боевик, комедия, криминал, приключения, семейный
Режиссер: Джаред Штерн, Сэм Ливайн
В ролях: Джон Красински, Киану Ривз, Дуэйн Джонсон, Кейт МакКиннон, Кевин Харт, Наташа Лионн, Диего Луна, Ванесса Байер, Марк Мэрон, Томас Миддлдитч

О фильме:
Когда неизвестные злодеи похищают всю Лигу справедливости, пес Супермена по имени Крипто, обладающий такими же способностями, как и его хозяин, берет на себя миссию по их спасению. Для этого Крипто собирает команду из суперпитомцев — самых обычных обитателей приюта, которые неожиданно обрели суперсилу. Среди них — сверхсильный бродяга Эйс, способная становиться гигантской свинья ПиБи, супербыстрая черепаха Мертон и бельчонок Чип, метающий электрические разряды. Сможет ли пушистая Лига суперпитомцев спасти Супермена, а заодно и весь мир?

Страна: США
Студия: 7 Bucks Productions, A Stern Talking To, DC Entertainment, Warner Animation Group
Продолжительность: 01:45:23
Перевод(ы):
#1: Дублированный (профессиональный) | Лицензия
#2: Дублированный (любительский) | Red Head Sound
#3: Профессиональный многоголосый | Jaskier
Субтитры: Русские (Forced, full), английские

Файл
Формат: Matroska
Качество: HDRip-AVC
Видео: 1024x428 at 23.976 fps, [email protected], ~1733 kbps
Аудио 1: AC3, 6 ch, ~384 kbps - | Русский | Суперпитомцы / DC League of Super-Pets (2022) HDRip-AVC от DoMiNo & селезень | D, P | Лицензия | Лицензия
Аудио 2: AC3, 6 ch, ~448 kbps - | Русский | | Red Head Sound
Аудио 3: AC3, 6 ch, ~384 kbps - | Русский | | Jaskier
Аудио 4: AC3, 6 ch, ~448 kbps - | Английский | | Оригинал |
Формат субтитров: softsub (SRT)[spoiler][/spoiler]

Суперпитомцы / DC League of Super-Pets (2022) HDRip-AVC от DoMiNo & селезень | D, P | Лицензия

Авторизуйтесь для получения доступа к скачиванию

Нет аккаунта? Регистрация открыта и займёт меньше минуты

Вход Регистрация

x264 [info]: frame I:1483 Avg QP:14.78 size: 62420
x264 [info]: frame P:35976 Avg QP:16.39 size: 19381
x264 [info]: frame B:114214 Avg QP:18.70 size: 5084
x264 [info]: consecutive B-frames: 3.8% 3.0% 9.1% 27.0% 14.2% 32.6% 6.0% 2.7% 1.2% 0.6% 0.3%

General
Unique ID : 155176186508121443492351652051477948777 (0x74BDD8AF5216C3A3CFEA3F4B68F16969)
Complete name : D:123DC.League.of.Super.Pets.2022.Lic.HDRip.x264.seleZen.mkv
Format : Matroska
Format version : Version 4
File size : 2.50 GiB
Duration : 1 h 45 min
Overall bit rate : 3 400 kb/s
Movie name : DC.League.of.Super.Pets.2022.Lic.HDRip.x264.seleZen
Encoded date : UTC 2022-10-03 08:35:37
Writing application : mkvmerge v70.0.0 ('Caught A Lite Sneeze') 64-bit
Writing library : libebml v1.4.2 + libmatroska v1.6.4
Cover : Yes
Attachments : cover.jpg / small_cover.jpg

Video
ID : 1
Format : AVC
Format/Info : Advanced Video Codec
Format profile : [email protected]
Format settings : CABAC / 14 Ref Frames
Format settings, CABAC : Yes
Format settings, Reference : 14 frames
Codec ID : V_MPEG4/ISO/AVC
Duration : 1 h 45 min
Bit rate : 1 733 kb/s
Width : 1 024 pixels
Height : 428 pixels
Display aspect ratio : 2.40:1
Frame rate mode : Constant
Frame rate : 23.976 (24000/1001) FPS
Color space : YUV
Chroma subsampling : 4:2:0
Bit depth : 8 bits
Scan type : Progressive
Bits/(Pixel*Frame) : 0.165
Stream size : 1.28 GiB (51%)
Title : -=DoMiNo=-
Writing library : x264 core 164 by -=DoMiNo=-
Encoding settings : cabac=1 / ref=14 / deblock=1:-3:-2 / analyse=0x3:0x133 / me=umh / subme=10 / psy=1 / psy_rd=1.10:0.15 / mixed_ref=1 / me_range=32 / chroma_me=1 / trellis=2 / 8x8dct=1 / cqm=0 / deadzone=21,11 / fast_pskip=1 / chroma_qp_offset=-3 / threads=13 / lookahead_threads=3 / sliced_threads=0 / nr=0 / decimate=1 / interlaced=0 / bluray_compat=0 / constrained_intra=0 / bframes=10 / b_pyramid=2 / b_adapt=2 / b_bias=0 / direct=1 / weightb=1 / open_gop=0 / weightp=2 / keyint=250 / keyint_min=23 / scenecut=40 / intra_refresh=0 / rc_lookahead=60 / rc=crf / mbtree=0 / crf=18.0 / qcomp=0.65 / qpmin=0 / qpmax=69 / qpstep=4 / vbv_maxrate=50000 / vbv_bufsize=62500 / crf_max=0.0 / nal_hrd=none / filler=0 / ip_ratio=1.40 / pb_ratio=1.30 / aq=3:0.90
Language : English
Default : Yes
Forced : No
Color range : Limited
Matrix coefficients : BT.709

Audio #1
ID : 2
Format : AC-3
Format/Info : Audio Coding 3
Commercial name : Dolby Digital
Codec ID : A_AC3
Duration : 1 h 45 min
Bit rate mode : Constant
Bit rate : 384 kb/s
Channel(s) : 6 channels
Channel layout : L R C LFE Ls Rs
Sampling rate : 48.0 kHz
Frame rate : 31.250 FPS (1536 SPF)
Compression mode : Lossy
Stream size : 290 MiB (11%)
Title : Dub [License]
Language : Russian
Service kind : Complete Main
Default : Yes
Forced : Yes

Audio #2
ID : 3
Format : AC-3
Format/Info : Audio Coding 3
Commercial name : Dolby Digital
Codec ID : A_AC3
Duration : 1 h 45 min
Bit rate mode : Constant
Bit rate : 448 kb/s
Channel(s) : 6 channels
Channel layout : L R C LFE Ls Rs
Sampling rate : 48.0 kHz
Frame rate : 31.250 FPS (1536 SPF)
Compression mode : Lossy
Stream size : 338 MiB (13%)
Title : Dub [Red Head Sound]
Language : Russian
Service kind : Complete Main
Default : No
Forced : No

Audio #3
ID : 4
Format : AC-3
Format/Info : Audio Coding 3
Commercial name : Dolby Digital
Codec ID : A_AC3
Duration : 1 h 45 min
Bit rate mode : Constant
Bit rate : 384 kb/s
Channel(s) : 6 channels
Channel layout : L R C LFE Ls Rs
Sampling rate : 48.0 kHz
Frame rate : 31.250 FPS (1536 SPF)
Compression mode : Lossy
Stream size : 290 MiB (11%)
Title : MVO [Jaskier]
Language : Russian
Service kind : Complete Main
Default : No
Forced : No

Audio #4
ID : 5
Format : AC-3
Format/Info : Audio Coding 3
Commercial name : Dolby Digital
Codec ID : A_AC3
Duration : 1 h 45 min
Bit rate mode : Constant
Bit rate : 448 kb/s
Channel(s) : 6 channels
Channel layout : L R C LFE Ls Rs
Sampling rate : 48.0 kHz
Frame rate : 31.250 FPS (1536 SPF)
Compression mode : Lossy
Stream size : 338 MiB (13%)
Title : Original
Language : English
Service kind : Complete Main
Default : No
Forced : No

Text #1
ID : 6
Format : UTF-8
Codec ID : S_TEXT/UTF8
Codec ID/Info : UTF-8 Plain Text
Duration : 1 h 28 min
Bit rate : 3 b/s
Count of elements : 36
Stream size : 1.97 KiB (0%)
Title : Forced
Language : Russian
Default : Yes
Forced : No

Text #2
ID : 7
Format : UTF-8
Codec ID : S_TEXT/UTF8
Codec ID/Info : UTF-8 Plain Text
Duration : 1 h 43 min
Bit rate : 99 b/s
Count of elements : 1504
Stream size : 76.0 KiB (0%)
Title : Full
Language : Russian
Default : No
Forced : No

Text #3
ID : 8
Format : UTF-8
Codec ID : S_TEXT/UTF8
Codec ID/Info : UTF-8 Plain Text
Duration : 2 s 378 ms
Bit rate : 100 b/s
Count of elements : 1
Stream size : 30.0 Bytes (0%)
Title : Forced
Language : English
Default : No
Forced : No

Text #4
ID : 9
Format : UTF-8
Codec ID : S_TEXT/UTF8
Codec ID/Info : UTF-8 Plain Text
Duration : 2 s 378 ms
Bit rate : 100 b/s
Count of elements : 1
Stream size : 30.0 Bytes (0%)
Title : Full
Language : English
Default : No
Forced : No

Text #5
ID : 10
Format : UTF-8
Codec ID : S_TEXT/UTF8
Codec ID/Info : UTF-8 Plain Text
Duration : 1 h 45 min
Bit rate : 78 b/s
Count of elements : 2158
Stream size : 60.2 KiB (0%)
Title : SDH
Language : English
Default : No
Forced : No

Menu
00:00:00.000 : en:Chapter 01
00:09:55.553 : en:Chapter 02
00:17:24.543 : en:Chapter 03
00:27:24.518 : en:Chapter 04
00:36:40.990 : en:Chapter 05
00:46:04.470 : en:Chapter 06
00:54:03.574 : en:Chapter 07
01:03:23.466 : en:Chapter 08
01:12:20.336 : en:Chapter 09
01:22:15.264 : en:Chapter 10
01:32:04.894 : en:Chapter 11
01:38:50.591 : en:Chapter 12

Другие фильмы
У данной публикации пока нет комментариев.
Будь первым, оставь своё мнение в комментариях!
Информация
Посетители, находящиеся в группе Гости, не могут оставлять комментарии к данной публикации.
Самый популярный релиз недели
RePack от селезень 48.88 Gb ...

Кино копилка
...
Какую тему вы используете?

Реклама
Последние комментарии
...

dembell56

Вчера, 22:22

...

Ponta

Вчера, 17:43

...

Vostorg

Вчера, 02:43

...

Desol

5 декабря 2022 18:21

...

Ponta

5 декабря 2022 17:53

Реклама