+3

Чужие: Поле битвы - Земля / Alien: Battlefield Earth (2021) WEB-DLRip-AVC от DoMiNo & селезень | P

Информация о фильме
Название: Чужие: Поле битвы - Земля
Оригинальное название: Alien: Battlefield Earth
Год выхода: 2021
Жанр: фантастика
Режиссер: Эндрю Джонс
В ролях: Дерек Нельсон, Николя Райт, Эмма Стейси, Скот Скерлок, Томас Марк Хиггинс, Питер Косгров, Майкл Кэмерон Басс, Эштон Спир, Райан Майклс, Шаррон Джонс

О фильме:
Американские военные находят двух пришельцев в пустыне Невада. Это провоцирует инопланетян из системы Дзета Сетки начать вторжение на Землю.

Выпущено: Великобритания, США / North Bank Entertainment
Продолжительность: 01:22:18
Перевод: Профессиональный (многоголосый, закадровый) | IVI

Файл
Формат: Matroska
Качество: WEB-DLRip-AVC
Видео: 1024x432 at 24.000 fps, [email protected], ~1545 kbps
Аудио 1: AC3, 6 ch, ~384 kbps - | Русский | Чужие: Поле битвы - Земля / Alien: Battlefield Earth (2021) WEB-DLRip-AVC от DoMiNo & селезень | P
Аудио 2: AC3, 6 ch, ~384 kbps - | Украинский |
Аудио 3: AC3, 6 ch, ~384 kbps - | Английский |
Субтитры: Нет

Чужие: Поле битвы - Земля / Alien: Battlefield Earth (2021) WEB-DLRip-AVC от DoMiNo & селезень | P

Авторизуйтесь для получения доступа к скачиванию

Нет аккаунта? Регистрация открыта и займёт меньше минуты

Вход Регистрация

x264 [info]: frame I:772 Avg QP:14.15 size: 50966
x264 [info]: frame P:26793 Avg QP:16.87 size: 17184
x264 [info]: frame B:90947 Avg QP:18.71 size: 4992
x264 [info]: consecutive B-frames: 2,5% 3,2% 7,0% 31,1% 17,5% 15,1% 13,2% 3,6% 2,3% 0,6% 0,4% 0,5% 0,5%

General
Unique ID : 183528751240678513870525000706148058399 (0×8A125A0D67A4B0E35E26AF1DF740C51 °F)
Complete name : D:DELtAlien-Battlefield.Earth.2021.WEB-DLRip.x264.seleZen.mkv
Format : Matroska
Format version : Version 4
File size : 1.55 GiB
Duration : 1 h 22 min
Overall bit rate : 2 700 kb/s
Movie name : Alien-Battlefield.Earth.2021.WEB-DLRip.x264.seleZen
Encoded date : UTC 28.08.2022 20:36:02
Writing application : mkvmerge v70.0.0 ('Caught A Lite Sneeze') 64-bit
Writing library : libebml v1.4.2 + libmatroska v1.6.4
Cover : Yes
Attachments : cover.jpg / small_cover.jpg

Video
ID : 1
Format : AVC
Format/Info : Advanced Video Codec
Format profile : [email protected]
Format settings : CABAC / 14 Ref Frames
Format settings, CABAC : Yes
Format settings, Reference : 14 frames
Codec ID : V_MPEG4/ISO/AVC
Duration : 1 h 22 min
Bit rate : 1 545 kb/s
Width : 1 024 pixels
Height : 432 pixels
Display aspect ratio : 2.40:1
Frame rate mode : Constant
Frame rate : 24.000 FPS
Color space : YUV
Chroma subsampling : 4:2:0
Bit depth : 8 bits
Scan type : Progressive
Bits/(Pixel*Frame) : 0.146
Stream size : 910 MiB (57%)
Title : -=DoMiNo=-
Writing library : x264 core 164 by -=DoMiNo=-
Encoding settings : cabac=1 / ref=14 / deblock=1:-3:-2 / analyse=0×3:0×133 / me=umh / subme=10 / psy=1 / psy_rd=1.05:0.15 / mixed_ref=1 / me_range=32 / chroma_me=1 / trellis=2 / 8×8dct=1 / cqm=0 / deadzone=21,11 / fast_pskip=0 / chroma_qp_offset=-3 / threads=17 / lookahead_threads=3 / sliced_threads=0 / nr=0 / decimate=0 / interlaced=0 / bluray_compat=0 / constrained_intra=0 / bframes=12 / b_pyramid=2 / b_adapt=2 / b_bias=0 / direct=1 / weightb=1 / open_gop=0 / weightp=2 / keyint=250 / keyint_min=24 / scenecut=40 / intra_refresh=0 / rc_lookahead=60 / rc=crf / mbtree=0 / crf=19.0 / qcomp=0.65 / qpmin=0 / qpmax=69 / qpstep=4 / vbv_maxrate=50000 / vbv_bufsize=62500 / crf_max=0.0 / nal_hrd=none / filler=0 / ip_ratio=1.40 / pb_ratio=1.30 / aq=3:0.80
Language : English
Default : Yes
Forced : No

Audio #1
ID : 2
Format : AC-3
Format/Info : Audio Coding 3
Commercial name : Dolby Digital
Codec ID : A_AC3
Duration : 1 h 22 min
Bit rate mode : Constant
Bit rate : 384 kb/s
Channel (s) : 6 channels
Channel layout : L R C LFE Ls Rs
Sampling rate : 48.0 kHz
Frame rate : 31.250 FPS (1536 SPF)
Compression mode : Lossy
Stream size : 226 MiB (14%)
Title : MVO
Language : Russian
Service kind : Complete Main
Default : Yes
Forced : Yes

Audio #2
ID : 3
Format : AC-3
Format/Info : Audio Coding 3
Commercial name : Dolby Digital
Codec ID : A_AC3
Duration : 1 h 22 min
Bit rate mode : Constant
Bit rate : 384 kb/s
Channel (s) : 6 channels
Channel layout : L R C LFE Ls Rs
Sampling rate : 48.0 kHz
Frame rate : 31.250 FPS (1536 SPF)
Compression mode : Lossy
Stream size : 226 MiB (14%)
Title : MVO
Language : Ukrainian
Service kind : Complete Main
Default : No
Forced : No

Audio #3
ID : 4
Format : AC-3
Format/Info : Audio Coding 3
Commercial name : Dolby Digital
Codec ID : A_AC3
Duration : 1 h 22 min
Bit rate mode : Constant
Bit rate : 384 kb/s
Channel (s) : 6 channels
Channel layout : L R C LFE Ls Rs
Sampling rate : 48.0 kHz
Frame rate : 31.250 FPS (1536 SPF)
Compression mode : Lossy
Stream size : 226 MiB (14%)
Title : Original
Language : English
Service kind : Complete Main
Default : No
Forced : No

Menu
00:00:00.000 : en:Глава 01
00:12:30.000 : en:Глава 02
00:25:00.000 : en:Глава 03
00:37:30.000 : en:Глава 04
00:50:00.000 : en:Глава 05
01:02:30.000 : en:Глава 06
01:15:00.000 : en:Глава 07

Другие фильмы
У данной публикации пока нет комментариев.
Будь первым, оставь своё мнение в комментариях!
Информация
Посетители, находящиеся в группе Гости, не могут оставлять комментарии к данной публикации.
Самый популярный релиз недели
RePack от селезень 48.88 Gb ...

Кино копилка
...
Какую тему вы используете?

Реклама
Последние комментарии
...

dembell56

Вчера, 22:22

...

Ponta

Вчера, 17:43

...

Vostorg

Вчера, 02:43

...

Desol

5 декабря 2022 18:21

...

Ponta

5 декабря 2022 17:53

Реклама