+20

Вышка / Fall (2022) BDRip 1080p от селезень | D, P | iTunes

Информация о фильме
Название: Вышка
Оригинальное название: Fall
Год выхода: 2022
Жанр: триллер
Режиссер: Скотт Манн
В ролях: Грэйс Фултон, Вирджиния Гарднер, Джеффри Дин Морган, Мэйсон Гудинг, Джаспер Коул, Branden Currey, Даррел Деннис, Бамм Эриксен, Nick Lynes, Evie Mann

О фильме: Бекки всегда была экстремалом, но после гибели мужа решила прекратить погоню за адреналином. Её ждет последнее восхождение - вместе с подругой Бекки забирается на вершину радиомачты высотой более 600 метров, чтобы развеять прах супруга. Теперь девушкам предстоит вступить в борьбу со стихией в призрачной надежде на спасение.

Страна: Великобритания, США
Студия: Capstone Group, Tea Shop & Film Company
Продолжительность: 01:47:20
Перевод(ы):
#1: Дублированный | iTunes
#2: Профессиональный многоголосый | Jaskier

Качество: BDRip 1080p
Видео: MPEG-4 AVC, 1920x960, 16.2 Mbit/s, 23.976 fps
Аудио #01: 48 kHz, AC3, 5.1, 384 Kbps | Дублированный | iTunes | RUS |Вышка / Fall (2022) BDRip 1080p от селезень | D, P | iTunes
Аудио #02: 48 kHz, AC3, 5.1, 384 Kbps | Профессиональный многоголосый | Jaskier | RUS |
Аудио #03: 48 kHz, AC3, 5.1, 640 Kbps | Оригинал | ENG |
Субтитры: Английские

***В озвучке от Jaskier присутствует ненормативная лексика

Вышка / Fall (2022) BDRip 1080p от селезень | D, P | iTunes

Авторизуйтесь для получения доступа к скачиванию

Нет аккаунта? Регистрация открыта и займёт меньше минуты

Вход Регистрация

General
Unique ID : 260499761970272144781627497803557755146 (0xC3FA6DE09A879DBEE3BD54A8C479D90A)
Complete name : F:\Video\Fall.2022.BDRip.1080p.seleZen.mkv
Format : Matroska
Format version : Version 4
File size : 13.2 GiB
Duration : 1 h 47 min
Overall bit rate : 17.7 Mb/s
Movie name : Fall 2022 from seleZen
Encoded date : UTC 2022-10-15 18:15:10
Writing application : mkvmerge v59.0.0 ('Shining Star') 64-bit
Writing library : libebml v1.4.2 + libmatroska v1.6.4

Video
ID : 1
Format : AVC
Format/Info : Advanced Video Codec
Format profile : [email protected]
Format settings : CABAC / 4 Ref Frames
Format settings, CABAC : Yes
Format settings, Reference : 4 frames
Codec ID : V_MPEG4/ISO/AVC
Duration : 1 h 47 min
Bit rate : 16.2 Mb/s
Width : 1 920 pixels
Height : 960 pixels
Display aspect ratio : 2.000
Frame rate mode : Constant
Frame rate : 23.976 (24000/1001) FPS
Color space : YUV
Chroma subsampling : 4:2:0
Bit depth : 8 bits
Scan type : Progressive
Bits/(Pixel*Frame) : 0.368
Stream size : 12.2 GiB (92%)
Title : playHD
Writing library : x264 core 164 r3075+55M t_mod ~ Encoded by luvBB: JigSaw & droops16
Encoding settings : cabac=1 / ref=4 / deblock=1:-3:-3 / analyse=0x3:0x133 / me=umh / subme=10 / psy=1 / fade_compensate=0.00 / psy_rd=1.00:0.00 / mixed_ref=1 / me_range=32 / chroma_me=1 / trellis=2 / 8x8dct=1 / cqm=0 / deadzone=21,11 / fast_pskip=0 / chroma_qp_offset=-2 / threads=12 / lookahead_threads=2 / sliced_threads=0 / nr=0 / decimate=0 / interlaced=0 / bluray_compat=0 / constrained_intra=0 / fgo=0 / bframes=9 / b_pyramid=2 / b_adapt=2 / b_bias=0 / direct=3 / weightb=1 / open_gop=0 / weightp=2 / keyint=250 / keyint_min=23 / scenecut=40 / intra_refresh=0 / rc=crf / mbtree=0 / crf=16.4000 / qcomp=0.60 / qpmin=0:0:0 / qpmax=69:69:69 / qpstep=4 / ip_ratio=1.30 / pb_ratio=1.20 / aq=3:0.85 / aq-sensitivity=10.00 / aq-factor=1.00:1.00:1.00 / aq2=0 / aq3=0
Language : English
Default : Yes
Forced : No

Audio #1
ID : 2
Format : AC-3
Format/Info : Audio Coding 3
Commercial name : Dolby Digital
Codec ID : A_AC3
Duration : 1 h 47 min
Bit rate mode : Constant
Bit rate : 384 kb/s
Channel(s) : 6 channels
Channel layout : L R C LFE Ls Rs
Sampling rate : 48.0 kHz
Frame rate : 31.250 FPS (1536 SPF)
Compression mode : Lossy
Stream size : 295 MiB (2%)
Title : Dub
Language : Russian
Service kind : Complete Main
Default : Yes
Forced : Yes

Audio #2
ID : 3
Format : AC-3
Format/Info : Audio Coding 3
Commercial name : Dolby Digital
Codec ID : A_AC3
Duration : 1 h 47 min
Bit rate mode : Constant
Bit rate : 384 kb/s
Channel(s) : 6 channels
Channel layout : L R C LFE Ls Rs
Sampling rate : 48.0 kHz
Frame rate : 31.250 FPS (1536 SPF)
Compression mode : Lossy
Stream size : 295 MiB (2%)
Title : MVO [Jaskier]
Language : Russian
Service kind : Complete Main
Default : No
Forced : No

Audio #3
ID : 4
Format : AC-3
Format/Info : Audio Coding 3
Commercial name : Dolby Digital
Codec ID : A_AC3
Duration : 1 h 47 min
Bit rate mode : Constant
Bit rate : 640 kb/s
Channel(s) : 6 channels
Channel layout : L R C LFE Ls Rs
Sampling rate : 48.0 kHz
Frame rate : 31.250 FPS (1536 SPF)
Compression mode : Lossy
Stream size : 491 MiB (4%)
Title : Original
Language : English
Service kind : Complete Main
Default : No
Forced : No

Text #1
ID : 5
Format : UTF-8
Codec ID : S_TEXT/UTF8
Codec ID/Info : UTF-8 Plain Text
Duration : 1 h 41 min
Bit rate : 42 b/s
Frame rate : 0.183 FPS
Count of elements : 1109
Stream size : 31.4 KiB (0%)
Title : Full
Language : English
Default : No
Forced : No

Text #2
ID : 6
Format : UTF-8
Codec ID : S_TEXT/UTF8
Codec ID/Info : UTF-8 Plain Text
Duration : 1 h 41 min
Bit rate : 50 b/s
Frame rate : 0.226 FPS
Count of elements : 1374
Stream size : 37.7 KiB (0%)
Title : SDH
Language : English
Default : No
Forced : No

Menu
00:00:00.000 : :Chapter 01
00:04:34.274 : :Chapter 02
00:12:39.676 : :Chapter 03
00:21:03.262 : :Chapter 04
00:25:30.529 : :Chapter 05
00:32:07.926 : :Chapter 06
00:41:00.458 : :Chapter 07
00:45:15.713 : :Chapter 08
00:55:13.310 : :Chapter 09
01:02:15.732 : :Chapter 10
01:11:24.280 : :Chapter 11
01:18:23.949 : :Chapter 12
01:24:39.074 : :Chapter 13
01:29:03.338 : :Chapter 14
01:34:21.656 : :Chapter 15
01:42:25.139 : :Chapter 16

Другие фильмы
Комментарии:

...
sbgr5127 15 октября 2022 15:40
0

страшно смотреть, но оторваться невозможно. Давно такого захватывающего фильма не смотрел

...
Robot 5 сентября 2022 11:29
0

Men38, красиво сказано!

...
Men38 5 сентября 2022 05:33
+2

Адреналиновые маньяки - это до самого конца. Хуже наркомании, невозможно остановиться. Поэтому и нет мемуаров престарелых экстремалов. 

Информация
Посетители, находящиеся в группе Гости, не могут оставлять комментарии к данной публикации.
Самый популярный релиз недели
RePack от селезень 48.88 Gb ...

Кино копилка
...
Какую тему вы используете?

Реклама
Последние комментарии
...

dembell56

Вчера, 22:22

...

Ponta

Вчера, 17:43

...

Vostorg

Вчера, 02:43

...

Desol

5 декабря 2022 18:21

...

Ponta

5 декабря 2022 17:53

Реклама