+6

Тор: Любовь и гром / Thor: Love and Thunder (2022) WEB-DLRip-AVC от DoMiNo & селезень | P | IMAX

Информация о фильме
Название: Тор: Любовь и гром
Оригинальное название: Thor: Love and Thunder
Год выхода: 2022
Жанр: фантастика, фэнтези, боевик, мелодрама, комедия, приключения
Режиссер: Тайка Вайтити
В ролях: Крис Хемсворт, Натали Портман, Крис Прэтт, Тайка Вайтити, Сэм Нилл, Брэдли Купер, Мелисса Маккарти, Кристиан Бэйл, Карен Гиллан, Мэтт Дэймон

О фильме:
Джейн Фостер берет на себя обязанности Бога-громовержца и становится обладательницей молота Мьёльнира.

Страна: Австралия, США
Студия: Fox Studios Australia, Marvel Studios Inc., Walt Disney Pictures
Продолжительность: 01:58:44
Перевод:
#1: Профессиональный многоголосый | Jaskier
#2: Профессиональный многоголосый | NewComers
Субтитры: Русские (Full / Cool Story Blog), английские

Файл
Формат: Matroska
Качество: WEB-DLRip-AVC | IMAX
Видео: 1024x540 at 23.976 fps, [email protected], ~1953 kbps
Аудио 1: AC3, 6 ch, ~384 kbps - | Русский | Тор: Любовь и гром / Thor: Love and Thunder (2022) WEB-DLRip-AVC от DoMiNo & селезень | P | IMAX | Jaskier
Аудио 2: AC3, 6 ch, ~448 kbps - | Русский | | NewComers
Аудио 3: AC3, 6 ch, ~448 kbps - | Английский | | Оригинал
Формат субтитров: softsub (SRT)

Тор: Любовь и гром / Thor: Love and Thunder (2022) WEB-DLRip-AVC от DoMiNo & селезень | P | IMAX

Авторизуйтесь для получения доступа к скачиванию

Нет аккаунта? Регистрация открыта и займёт меньше минуты

Вход Регистрация

x264 [info]: frame I:1898 Avg QP:14.88 size: 64243
x264 [info]: frame P:44787 Avg QP:16.72 size: 20317
x264 [info]: frame B:124117 Avg QP:18.80 size: 5698
x264 [info]: consecutive B-frames: 2.8% 4.2% 11.3% 59.0% 8.6% 11.1% 1.2% 1.0% 0.1% 0.5%

General
Unique ID : 124830506009472154719244546458457488788 (0x5DE97B1F846B94485B1B48C3E18C3D94)
Complete name : D:Thor.Love.and.Thunder.2022.2xMVO.IMAX.WEB-DLRip.x264.seleZen.mkv
Format : Matroska
Format version : Version 4
File size : 2.68 GiB
Duration : 1 h 58 min
Overall bit rate : 3 236 kb/s
Movie name : Thor.Love.and.Thunder.2022.2xMVO.IMAX.WEB-DLRip.x264.seleZen
Encoded date : UTC 2022-09-10 23:10:59
Writing application : mkvmerge v70.0.0 ('Caught A Lite Sneeze') 64-bit
Writing library : libebml v1.4.2 + libmatroska v1.6.4
Cover : Yes
Attachments : cover.jpg / small_cover.jpg

Video
ID : 1
Format : AVC
Format/Info : Advanced Video Codec
Format profile : [email protected]
Format settings : CABAC / 14 Ref Frames
Format settings, CABAC : Yes
Format settings, Reference : 14 frames
Codec ID : V_MPEG4/ISO/AVC
Duration : 1 h 58 min
Bit rate : 1 953 kb/s
Width : 1 024 pixels
Height : 540 pixels
Display aspect ratio : 1.896
Frame rate mode : Constant
Frame rate : 23.976 (24000/1001) FPS
Color space : YUV
Chroma subsampling : 4:2:0
Bit depth : 8 bits
Scan type : Progressive
Bits/(Pixel*Frame) : 0.147
Stream size : 1.62 GiB (60%)
Title : -=DoMiNo=-
Writing library : x264 core 164 by -=DoMiNo=-
Encoding settings : cabac=1 / ref=14 / deblock=1:-3:-2 / analyse=0x3:0x133 / me=umh / subme=10 / psy=1 / psy_rd=1.05:0.15 / mixed_ref=1 / me_range=32 / chroma_me=1 / trellis=2 / 8x8dct=1 / cqm=0 / deadzone=21,11 / fast_pskip=0 / chroma_qp_offset=-3 / threads=17 / lookahead_threads=2 / sliced_threads=0 / nr=0 / decimate=0 / interlaced=0 / bluray_compat=0 / constrained_intra=0 / bframes=9 / b_pyramid=2 / b_adapt=2 / b_bias=0 / direct=1 / weightb=1 / open_gop=0 / weightp=2 / keyint=250 / keyint_min=23 / scenecut=40 / intra_refresh=0 / rc_lookahead=60 / rc=crf / mbtree=0 / crf=18.5 / qcomp=0.65 / qpmin=0 / qpmax=69 / qpstep=4 / vbv_maxrate=50000 / vbv_bufsize=62500 / crf_max=0.0 / nal_hrd=none / filler=0 / ip_ratio=1.40 / pb_ratio=1.30 / aq=3:0.80
Language : English
Default : Yes
Forced : No
Color range : Limited
Color primaries : BT.709
Transfer characteristics : BT.709
Matrix coefficients : BT.709

Audio #1
ID : 2
Format : AC-3
Format/Info : Audio Coding 3
Commercial name : Dolby Digital
Codec ID : A_AC3
Duration : 1 h 58 min
Bit rate mode : Constant
Bit rate : 384 kb/s
Channel(s) : 6 channels
Channel layout : L R C LFE Ls Rs
Sampling rate : 48.0 kHz
Frame rate : 31.250 FPS (1536 SPF)
Compression mode : Lossy
Stream size : 326 MiB (12%)
Title : MVO [Jaskier]
Language : Russian
Service kind : Complete Main
Default : Yes
Forced : Yes

Audio #2
ID : 3
Format : AC-3
Format/Info : Audio Coding 3
Commercial name : Dolby Digital
Codec ID : A_AC3
Duration : 1 h 58 min
Bit rate mode : Constant
Bit rate : 448 kb/s
Channel(s) : 6 channels
Channel layout : L R C LFE Ls Rs
Sampling rate : 48.0 kHz
Frame rate : 31.250 FPS (1536 SPF)
Compression mode : Lossy
Stream size : 381 MiB (14%)
Title : MVO [NewComers]
Language : Russian
Service kind : Complete Main
Default : No
Forced : No

Audio #3
ID : 4
Format : AC-3
Format/Info : Audio Coding 3
Commercial name : Dolby Digital
Codec ID : A_AC3
Duration : 1 h 58 min
Bit rate mode : Constant
Bit rate : 448 kb/s
Channel(s) : 6 channels
Channel layout : L R C LFE Ls Rs
Sampling rate : 48.0 kHz
Frame rate : 31.250 FPS (1536 SPF)
Compression mode : Lossy
Stream size : 380 MiB (14%)
Title : Original
Language : English
Service kind : Complete Main
Default : No
Forced : No

Text #1
ID : 5
Format : UTF-8
Codec ID : S_TEXT/UTF8
Codec ID/Info : UTF-8 Plain Text
Duration : 1 h 57 min
Bit rate : 94 b/s
Count of elements : 1615
Stream size : 81.6 KiB (0%)
Title : Full [Cool Story Blog]
Language : Russian
Default : No
Forced : No

Text #2
ID : 6
Format : UTF-8
Codec ID : S_TEXT/UTF8
Codec ID/Info : UTF-8 Plain Text
Duration : 1 h 57 min
Bit rate : 55 b/s
Count of elements : 1598
Stream size : 47.5 KiB (0%)
Title : Full
Language : English
Default : No
Forced : No

Text #3
ID : 7
Format : UTF-8
Codec ID : S_TEXT/UTF8
Codec ID/Info : UTF-8 Plain Text
Duration : 1 h 58 min
Bit rate : 70 b/s
Count of elements : 2281
Stream size : 61.2 KiB (0%)
Title : SDH
Language : English
Default : No
Forced : No

Menu
01:48:20.542 : en:Credits
01:50:05.397 : en:Post-Credits Scene 1
01:57:44.273 : en:Post-Credits Scene 2

Другие фильмы
У данной публикации пока нет комментариев.
Будь первым, оставь своё мнение в комментариях!
Информация
Посетители, находящиеся в группе Гости, не могут оставлять комментарии к данной публикации.
Самый популярный релиз недели
RePack от селезень 48.88 Gb ...

Кино копилка
...
Какую тему вы используете?

Реклама
Последние комментарии
...

dembell56

Вчера, 22:22

...

Ponta

Вчера, 17:43

...

Vostorg

Вчера, 02:43

...

Desol

5 декабря 2022 18:21

...

Ponta

5 декабря 2022 17:53

Реклама