+4

Тор: Любовь и гром / Thor: Love and Thunder (2022) WEB-DLRip-AVC от DoMiNo & селезень | P | IMAX

Информация о фильме
Название: Тор: Любовь и гром
Оригинальное название: Thor: Love and Thunder
Год выхода: 2022
Жанр: фантастика, фэнтези, боевик, мелодрама, комедия, приключения
Режиссер: Тайка Вайтити
В ролях: Крис Хемсворт, Натали Портман, Крис Прэтт, Тайка Вайтити, Сэм Нилл, Брэдли Купер, Мелисса Маккарти, Кристиан Бэйл, Карен Гиллан, Мэтт Дэймон

О фильме:
Джейн Фостер берет на себя обязанности Бога-громовержца и становится обладательницей молота Мьёльнира.

Страна: Австралия, США
Студия: Fox Studios Australia, Marvel Studios Inc., Walt Disney Pictures
Продолжительность: 01:58:44
Перевод: Профессиональный многоголосый | Jaskier
Субтитры: Русские (Full / Cool Story Blog), английские

Файл
Формат: Matroska
Качество: WEB-DLRip-AVC
Видео: 720×380 at 23.976 fps, [email protected], ~797 kbps
Аудио: AAC, 2 ch, ~80 kbps — | Русский | Тор: Любовь и гром / Thor: Love and Thunder (2022) WEB-DLRip-AVC от DoMiNo & селезень | P | IMAX
Формат субтитров: softsub (SRT)

Тор: Любовь и гром / Thor: Love and Thunder (2022) WEB-DLRip-AVC от DoMiNo & селезень | P | IMAX

Авторизуйтесь для получения доступа к скачиванию

Нет аккаунта? Регистрация открыта и займёт меньше минуты

Вход Регистрация

x264 [info]: frame I:1890 Avg QP:18.81 size: 27249
x264 [info]: frame P:46139 Avg QP:21.25 size: 7994
x264 [info]: frame B:122773 Avg QP:22.53 size: 2357
x264 [info]: consecutive B-frames: 3,1% 4,4% 12,4% 62,5% 8,3% 6,5% 1,0% 0,9% 0,1% 0,1% 0,7%

General
Unique ID : 323153308905504128826578833792799803584 (0xF31D103C9D20ADB253CCF402147B08C0)
Complete name : D:Thor.Love.and.Thunder.2022.IMAX.WEB-DLRip.x264.seleZen.mkv
Format : Matroska
Format version : Version 4
File size : 746 MiB
Duration : 1 h 58 min
Overall bit rate : 878 kb/s
Movie name : Thor.Love.and.Thunder.2022.IMAX.WEB-DLRip.x264.seleZen
Encoded date : UTC 11.09.2022 15:25:38
Writing application : mkvmerge v70.0.0 ('Caught A Lite Sneeze') 64-bit
Writing library : libebml v1.4.2 + libmatroska v1.6.4
Cover : Yes
Attachments : cover.jpg / small_cover.jpg

Video
ID : 1
Format : AVC
Format/Info : Advanced Video Codec
Format profile : [email protected]
Format settings : CABAC / 16 Ref Frames
Format settings, CABAC : Yes
Format settings, Reference : 16 frames
Codec ID : V_MPEG4/ISO/AVC
Duration : 1 h 58 min
Bit rate : 797 kb/s
Width : 720 pixels
Height : 380 pixels
Display aspect ratio : 1.895
Frame rate mode : Constant
Frame rate : 23.976 (24000/1001) FPS
Color space : YUV
Chroma subsampling : 4:2:0
Bit depth : 8 bits
Scan type : Progressive
Bits/(Pixel*Frame) : 0.121
Stream size : 677 MiB (91%)
Title : -=DoMiNo=-
Writing library : x264 core 164 by -=DoMiNo=-
Encoding settings : cabac=1 / ref=16 / deblock=1:-3:-2 / analyse=0×3:0×133 / me=umh / subme=10 / psy=1 / psy_rd=1.02:0.02 / mixed_ref=1 / me_range=32 / chroma_me=1 / trellis=2 / 8×8dct=1 / cqm=0 / deadzone=21,11 / fast_pskip=0 / chroma_qp_offset=-3 / threads=17 / lookahead_threads=2 / sliced_threads=0 / nr=0 / decimate=0 / interlaced=0 / bluray_compat=0 / constrained_intra=0 / bframes=10 / b_pyramid=2 / b_adapt=2 / b_bias=0 / direct=3 / weightb=1 / open_gop=0 / weightp=2 / keyint=250 / keyint_min=23 / scenecut=40 / intra_refresh=0 / rc_lookahead=60 / rc=2pass / mbtree=0 / bitrate=797 / ratetol=1.0 / qcomp=0.80 / qpmin=0 / qpmax=69 / qpstep=4 / cplxblur=20.0 / qblur=0.5 / vbv_maxrate=50000 / vbv_bufsize=62500 / nal_hrd=none / filler=0 / ip_ratio=1.20 / pb_ratio=1.30 / aq=2:0.80
Language : English
Default : Yes
Forced : No
Color range : Limited
Color primaries : BT.709
Transfer characteristics : BT.709
Matrix coefficients : BT.709

Audio
ID : 2
Format : AAC LC SBR
Format/Info : Advanced Audio Codec Low Complexity with Spectral Band Replication
Commercial name : HE-AAC
Format settings : Explicit
Codec ID : A_AAC-2
Duration : 1 h 58 min
Bit rate : 78.7 kb/s
Channel (s) : 2 channels
Channel layout : L R
Sampling rate : 48.0 kHz
Frame rate : 23.438 FPS (2048 SPF)
Compression mode : Lossy
Stream size : 66.8 MiB (9%)
Title : MVO [Jaskier]
Language : Russian
Default : Yes
Forced : Yes

Text #1
ID : 3
Format : UTF-8
Codec ID : S_TEXT/UTF8
Codec ID/Info : UTF-8 Plain Text
Duration : 1 h 57 min
Bit rate : 94 b/s
Count of elements : 1615
Stream size : 81.6 KiB (0%)
Title : Full [Cool Story Blog]
Language : Russian
Default : No
Forced : No

Text #2
ID : 4
Format : UTF-8
Codec ID : S_TEXT/UTF8
Codec ID/Info : UTF-8 Plain Text
Duration : 1 h 57 min
Bit rate : 55 b/s
Count of elements : 1598
Stream size : 47.5 KiB (0%)
Title : Full
Language : English
Default : No
Forced : No

Text #3
ID : 5
Format : UTF-8
Codec ID : S_TEXT/UTF8
Codec ID/Info : UTF-8 Plain Text
Duration : 1 h 58 min
Bit rate : 70 b/s
Count of elements : 2281
Stream size : 61.2 KiB (0%)
Title : SDH
Language : English
Default : No
Forced : No

Menu
01:48:20.542 : en:Credits
01:50:05.397 : en:Post-Credits Scene 1
01:57:44.273 : en:Post-Credits Scene 2

Другие фильмы
У данной публикации пока нет комментариев.
Будь первым, оставь своё мнение в комментариях!
Информация
Посетители, находящиеся в группе Гости, не могут оставлять комментарии к данной публикации.
Самый популярный релиз недели
RePack от селезень 48.88 Gb ...

Кино копилка
...
Какую тему вы используете?

Реклама
Последние комментарии
...

dembell56

Вчера, 22:22

...

Ponta

Вчера, 17:43

...

Vostorg

Вчера, 02:43

...

Desol

5 декабря 2022 18:21

...

Ponta

5 декабря 2022 17:53

Реклама