+2

Мир Юрского периода: Господство / Jurassic World Dominion (2022) BDRip 720p от селезень | D

Информация о фильме
Название: Мир Юрского периода: Господство
Оригинальное название: Jurassic World Dominion
Год выхода: 2022
Жанр: фантастика, боевик, триллер, приключения
Режиссер: Колин Треворроу
В ролях: Крис Пратт, Брайс Даллас Ховард, Лора Дерн, Сэм Нил, Джефф Голдблюм, ДеВанда Уайз, Мамуду Ати, Изабелла Сермон, Кэмпбелл Скотт, Б.Д. Вонг

О фильме: После уничтожения острова Нублар динозавры вырвались на свободу и заполнили планету. Людям удается поддерживать хрупкое равновесие, определяющее мирное сосуществование на Земле. Но как долго человек сможет сохранять свое господство, живя по соседству с самыми устрашающими существами в истории?

Страна: США, Китай, Мальта
Студия: Amblin Entertainment, Latina Pictures, Perfect World (Beijing) Pictures Co., Universal Pictures
Продолжительность: 02:26:57
Перевод Дублированный | Bravo Records Georgia

Качество: BDRip 720p
Видео: MPEG-4 AVC, 1280x640, 5000 Kbit/s, 23.976 fps
Аудио #01: 48 kHz, AC3, 5.1, 384 Kbps | Дублированный | Bravo Records Georgia | RUS |Мир Юрского периода: Господство / Jurassic World Dominion (2022) BDRip 720p от селезень | D
Аудио #02: 48 kHz, AC3, 5.1, 640 Kbps | Оригинал | ENG |
Субтитры: Русские (Forced, full), английские

Мир Юрского периода: Господство / Jurassic World Dominion (2022) BDRip 720p от селезень | D

Авторизуйтесь для получения доступа к скачиванию

Нет аккаунта? Регистрация открыта и займёт меньше минуты

Вход Регистрация

General
Unique ID : 133643138397848699151498210144239144081 (0x648ABB7221318A60B67A7E08C1BACC91)
Complete name : F:\Video\Jurassic.World.Dominion.2022.D.BDRip.720p.seleZen.mkv
Format : Matroska
Format version : Version 4
File size : 6.18 GiB
Duration : 2 h 27 min
Overall bit rate : 6 017 kb/s
Movie name : Jurassic World Dominion 2022 from seleZen
Encoded date : UTC 2022-09-11 21:52:07
Writing application : mkvmerge v59.0.0 ('Shining Star') 64-bit
Writing library : libebml v1.4.2 + libmatroska v1.6.4

Video
ID : 1
Format : AVC
Format/Info : Advanced Video Codec
Format profile : [email protected]
Format settings : CABAC / 10 Ref Frames
Format settings, CABAC : Yes
Format settings, Reference : 10 frames
Codec ID : V_MPEG4/ISO/AVC
Duration : 2 h 26 min
Bit rate : 5 000 kb/s
Width : 1 280 pixels
Height : 640 pixels
Display aspect ratio : 2.000
Frame rate mode : Constant
Frame rate : 23.976 (24000/1001) FPS
Color space : YUV
Chroma subsampling : 4:2:0
Bit depth : 8 bits
Scan type : Progressive
Bits/(Pixel*Frame) : 0.255
Stream size : 5.13 GiB (83%)
Writing library : x264 core 164 r3085+55M seleZen t_mod_New [(8 & 10)[email protected] X86_64]
Encoding settings : cabac=1 / ref=10 / deblock=1:-2:-2 / analyse=0x3:0x133 / me=umh / subme=10 / psy=1 / fade_compensate=0.00 / psy_rd=1.03:0.01 / mixed_ref=1 / me_range=32 / chroma_me=1 / trellis=2 / 8x8dct=1 / cqm=0 / deadzone=21,11 / fast_pskip=0 / chroma_qp_offset=-3 / threads=18 / lookahead_threads=3 / sliced_threads=0 / nr=0 / decimate=0 / interlaced=0 / bluray_compat=0 / constrained_intra=0 / fgo=0 / bframes=9 / b_pyramid=2 / b_adapt=2 / b_bias=0 / direct=3 / weightb=1 / open_gop=0 / weightp=2 / keyint=240 / keyint_min=23 / scenecut=40 / intra_refresh=0 / rc_lookahead=60 / rc=2pass / mbtree=0 / bitrate=5000 / ratetol=1.0 / qcomp=0.60 / qpmin=0:0:0 / qpmax=51:51:51 / qpstep=4 / cplxblur=20.0 / qblur=0.5 / vbv_maxrate=50000 / vbv_bufsize=62500 / nal_hrd=none / filler=0 / ip_ratio=1.40 / pb_ratio=1.30 / aq=3:0.80 / aq-sensitivity=10.00 / aq-factor=1.00:1.00:1.00 / aq2=0 / aq3=0
Language : English
Default : Yes
Forced : No

Audio #1
ID : 2
Format : AC-3
Format/Info : Audio Coding 3
Commercial name : Dolby Digital
Codec ID : A_AC3
Duration : 2 h 27 min
Bit rate mode : Constant
Bit rate : 384 kb/s
Channel(s) : 6 channels
Channel layout : L R C LFE Ls Rs
Sampling rate : 48.0 kHz
Frame rate : 31.250 FPS (1536 SPF)
Compression mode : Lossy
Stream size : 404 MiB (6%)
Title : Dub [Bravo Records Georgia]
Language : Russian
Service kind : Complete Main
Default : Yes
Forced : Yes

Audio #2
ID : 3
Format : AC-3
Format/Info : Audio Coding 3
Commercial name : Dolby Digital
Codec ID : A_AC3
Duration : 2 h 26 min
Bit rate mode : Constant
Bit rate : 640 kb/s
Channel(s) : 6 channels
Channel layout : L R C LFE Ls Rs
Sampling rate : 48.0 kHz
Frame rate : 31.250 FPS (1536 SPF)
Compression mode : Lossy
Stream size : 673 MiB (11%)
Title : Original
Language : English
Service kind : Complete Main
Default : No
Forced : No

Text #1
ID : 4
Format : UTF-8
Codec ID : S_TEXT/UTF8
Codec ID/Info : UTF-8 Plain Text
Duration : 2 h 0 min
Bit rate : 2 b/s
Frame rate : 0.006 FPS
Count of elements : 45
Stream size : 2.44 KiB (0%)
Title : Forced
Language : Russian
Default : Yes
Forced : Yes

Text #2
ID : 5
Format : UTF-8
Codec ID : S_TEXT/UTF8
Codec ID/Info : UTF-8 Plain Text
Duration : 2 h 14 min
Bit rate : 70 b/s
Frame rate : 0.176 FPS
Count of elements : 1424
Stream size : 69.4 KiB (0%)
Title : Full
Language : Russian
Default : No
Forced : No

Text #3
ID : 6
Format : UTF-8
Codec ID : S_TEXT/UTF8
Codec ID/Info : UTF-8 Plain Text
Duration : 2 h 26 min
Bit rate : 45 b/s
Frame rate : 0.207 FPS
Count of elements : 1820
Stream size : 48.4 KiB (0%)
Title : Full
Language : English
Default : No
Forced : No

Text #4
ID : 7
Format : UTF-8
Codec ID : S_TEXT/UTF8
Codec ID/Info : UTF-8 Plain Text
Duration : 2 h 26 min
Bit rate : 55 b/s
Frame rate : 0.272 FPS
Count of elements : 2393
Stream size : 60.2 KiB (0%)
Title : SDH
Language : English
Default : No
Forced : No

Menu
00:00:00.000 : Chapter 01
00:07:57.560 : Chapter 02
00:11:36.362 : Chapter 03
00:25:30.070 : Chapter 04
00:35:48.271 : Chapter 05
00:42:56.282 : Chapter 06
00:47:53.788 : Chapter 07
00:54:45.407 : Chapter 08
01:04:51.054 : Chapter 09
01:14:49.026 : Chapter 10
01:25:28.373 : Chapter 11
01:30:44.355 : Chapter 12
01:38:17.975 : Chapter 13
01:44:28.345 : Chapter 14
01:48:09.483 : Chapter 15
02:04:34.425 : Chapter 16
02:08:56.896 : Chapter 17
02:14:12.961 : Chapter 18
02:23:16.921 : Chapter 19
02:29:59.032 : Chapter 20

Другие фильмы
У данной публикации пока нет комментариев.
Будь первым, оставь своё мнение в комментариях!
Информация
Посетители, находящиеся в группе Гости, не могут оставлять комментарии к данной публикации.
Самый популярный релиз недели
RePack от селезень 48.88 Gb ...

Кино копилка
...
Какую тему вы используете?

Реклама
Последние комментарии
...

dembell56

Вчера, 22:22

...

Ponta

Вчера, 17:43

...

Vostorg

Вчера, 02:43

...

Desol

5 декабря 2022 18:21

...

Ponta

5 декабря 2022 17:53

Реклама