+7

Суперпитомцы / DC League of Super-Pets (2022) HDRip-AVC от DoMiNo & селезень | D

Информация о фильме
Название: Суперпитомцы
Оригинальное название: DC League of Super-Pets
Год выхода: 2022
Жанр: Мультфильм, фантастика, фэнтези, боевик, комедия, криминал, приключения, семейный
Режиссер: Джаред Штерн, Сэм Ливайн
В ролях: Джон Красински, Киану Ривз, Дуэйн Джонсон, Кейт МакКиннон, Кевин Харт, Наташа Лионн, Диего Луна, Ванесса Байер, Марк Мэрон, Томас Миддлдитч

О фильме:
Когда неизвестные злодеи похищают всю Лигу справедливости, пес Супермена по имени Крипто, обладающий такими же способностями, как и его хозяин, берет на себя миссию по их спасению. Для этого Крипто собирает команду из суперпитомцев — самых обычных обитателей приюта, которые неожиданно обрели суперсилу. Среди них — сверхсильный бродяга Эйс, способная становиться гигантской свинья ПиБи, супербыстрая черепаха Мертон и бельчонок Чип, метающий электрические разряды. Сможет ли пушистая Лига суперпитомцев спасти Супермена, а заодно и весь мир?

Страна: США
Студия: 7 Bucks Productions, A Stern Talking To, DC Entertainment, Warner Animation Group
Продолжительность: 01:45:23
Перевод (ы):
#1: Дублированный (профессиональный) | Bravo Records Georgia
#2: Дублированный (любительский) | Red Head Sound
Субтитры: Русские (Forced, full), английские

Файл
Формат: Matroska
Качество: HDRip-AVC
Видео: 720×302 at 23.976 fps, [email protected], ~828 kbps
Аудио: AAC, 2 ch, ~80 kbps — | Русский | Суперпитомцы / DC League of Super-Pets (2022) HDRip-AVC от DoMiNo & селезень | D | Bravo Records Georgia
Аудио: AAC, 2 ch, ~80 kbps — | Русский | | Red Head Sound
Формат субтитров: softsub (SRT)

Суперпитомцы / DC League of Super-Pets (2022) HDRip-AVC от DoMiNo & селезень | D

Авторизуйтесь для получения доступа к скачиванию

Нет аккаунта? Регистрация открыта и займёт меньше минуты

Вход Регистрация

x264 [info]: frame I:1483 Avg QP:14.78 size: 62420
x264 [info]: frame P:35976 Avg QP:16.39 size: 19381
x264 [info]: frame B:114214 Avg QP:18.70 size: 5084
x264 [info]: consecutive B-frames: 3,8% 3,0% 9,1% 27,0% 14,2% 32,6% 6,0% 2,7% 1,2% 0,6% 0,3%

General
Unique ID : 294285687231793030788450385882442154693 (0xDD655C99F8DF46409036D6F30E60C2C5)
Complete name : D:DELtDC.League.of.Super.Pets.2022.DUB.HDRip.x264.seleZen.mkv
Format : Matroska
Format version : Version 4
File size : 745 MiB
Duration : 1 h 45 min
Overall bit rate : 988 kb/s
Movie name : DC.League.of.Super.Pets.2022.DUB.HDRip.x264.seleZen
Encoded date : UTC 25.09.2022 16:32:41
Writing application : mkvmerge v70.0.0 ('Caught A Lite Sneeze') 64-bit
Writing library : libebml v1.4.2 + libmatroska v1.6.4
Cover : Yes
Attachments : cover.jpg / small_cover.jpg

Video
ID : 1
Format : AVC
Format/Info : Advanced Video Codec
Format profile : [email protected]
Format settings : CABAC / 14 Ref Frames
Format settings, CABAC : Yes
Format settings, Reference : 14 frames
Codec ID : V_MPEG4/ISO/AVC
Duration : 1 h 45 min
Bit rate : 828 kb/s
Width : 720 pixels
Height : 302 pixels
Display aspect ratio : 2.40:1
Frame rate mode : Constant
Frame rate : 23.976 (24000/1001) FPS
Color space : YUV
Chroma subsampling : 4:2:0
Bit depth : 8 bits
Scan type : Progressive
Bits/(Pixel*Frame) : 0.159
Stream size : 624 MiB (84%)
Title : -=DoMiNo=-
Writing library : x264 core 164 by -=DoMiNo=-
Encoding settings : cabac=1 / ref=14 / deblock=1:-3:-2 / analyse=0×3:0×133 / me=umh / subme=10 / psy=1 / psy_rd=1.10:0.15 / mixed_ref=1 / me_range=32 / chroma_me=1 / trellis=2 / 8×8dct=1 / cqm=0 / deadzone=21,11 / fast_pskip=0 / chroma_qp_offset=-3 / threads=16 / lookahead_threads=2 / sliced_threads=0 / nr=0 / decimate=0 / interlaced=0 / bluray_compat=0 / constrained_intra=0 / bframes=10 / b_pyramid=2 / b_adapt=2 / b_bias=0 / direct=3 / weightb=1 / open_gop=0 / weightp=2 / keyint=250 / keyint_min=23 / scenecut=40 / intra_refresh=0 / rc_lookahead=60 / rc=2pass / mbtree=0 / bitrate=828 / ratetol=1.0 / qcomp=0.65 / qpmin=0 / qpmax=69 / qpstep=4 / cplxblur=20.0 / qblur=0.5 / vbv_maxrate=50000 / vbv_bufsize=62500 / nal_hrd=none / filler=0 / ip_ratio=1.40 / pb_ratio=1.30 / aq=3:0.80
Language : English
Default : Yes
Forced : No
Color range : Limited
Matrix coefficients : BT.709

Audio #1
ID : 2
Format : AAC LC SBR
Format/Info : Advanced Audio Codec Low Complexity with Spectral Band Replication
Commercial name : HE-AAC
Format settings : Explicit
Codec ID : A_AAC-2
Duration : 1 h 45 min
Bit rate : 78.7 kb/s
Channel (s) : 2 channels
Channel layout : L R
Sampling rate : 48.0 kHz
Frame rate : 23.438 FPS (2048 SPF)
Compression mode : Lossy
Stream size : 59.3 MiB (8%)
Title : DUB_[Bravo Records Georgia]
Language : Russian
Default : Yes
Forced : Yes

Audio #2
ID : 3
Format : AAC LC SBR
Format/Info : Advanced Audio Codec Low Complexity with Spectral Band Replication
Commercial name : HE-AAC
Format settings : Explicit
Codec ID : A_AAC-2
Duration : 1 h 45 min
Bit rate : 78.7 kb/s
Channel (s) : 2 channels
Channel layout : L R
Sampling rate : 48.0 kHz
Frame rate : 23.438 FPS (2048 SPF)
Compression mode : Lossy
Stream size : 59.3 MiB (8%)
Title : DUB_[Red Head Sound]
Language : Russian
Default : No
Forced : No

Text #1
ID : 4
Format : UTF-8
Codec ID : S_TEXT/UTF8
Codec ID/Info : UTF-8 Plain Text
Duration : 1 h 28 min
Bit rate : 3 b/s
Count of elements : 36
Stream size : 1.97 KiB (0%)
Title : Forced
Language : Russian
Default : Yes
Forced : No

Text #2
ID : 5
Format : UTF-8
Codec ID : S_TEXT/UTF8
Codec ID/Info : UTF-8 Plain Text
Duration : 1 h 43 min
Bit rate : 99 b/s
Count of elements : 1504
Stream size : 76.0 KiB (0%)
Title : Full
Language : Russian
Default : No
Forced : No

Text #3
ID : 6
Format : UTF-8
Codec ID : S_TEXT/UTF8
Codec ID/Info : UTF-8 Plain Text
Duration : 2 s 378 ms
Bit rate : 100 b/s
Count of elements : 1
Stream size : 30.0 Bytes (0%)
Title : Forced
Language : English
Default : No
Forced : No

Text #4
ID : 7
Format : UTF-8
Codec ID : S_TEXT/UTF8
Codec ID/Info : UTF-8 Plain Text
Duration : 2 s 378 ms
Bit rate : 100 b/s
Count of elements : 1
Stream size : 30.0 Bytes (0%)
Title : Full
Language : English
Default : No
Forced : No

Text #5
ID : 8
Format : UTF-8
Codec ID : S_TEXT/UTF8
Codec ID/Info : UTF-8 Plain Text
Duration : 1 h 45 min
Bit rate : 78 b/s
Count of elements : 2158
Stream size : 60.2 KiB (0%)
Title : SDH
Language : English
Default : No
Forced : No

Menu
00:00:00.000 : en:Chapter 01
00:09:55.553 : en:Chapter 02
00:17:24.543 : en:Chapter 03
00:27:24.518 : en:Chapter 04
00:36:40.990 : en:Chapter 05
00:46:04.470 : en:Chapter 06
00:54:03.574 : en:Chapter 07
01:03:23.466 : en:Chapter 08
01:12:20.336 : en:Chapter 09
01:22:15.264 : en:Chapter 10
01:32:04.894 : en:Chapter 11
01:38:50.591 : en:Chapter 12

Другие фильмы
У данной публикации пока нет комментариев.
Будь первым, оставь своё мнение в комментариях!
Информация
Посетители, находящиеся в группе Гости, не могут оставлять комментарии к данной публикации.
Самый популярный релиз недели
RePack от селезень 48.88 Gb ...

Кино копилка
...
Какую тему вы используете?

Реклама
Последние комментарии
...

dembell56

Вчера, 22:22

...

Ponta

Вчера, 17:43

...

Vostorg

Вчера, 02:43

...

Desol

5 декабря 2022 18:21

...

Ponta

5 декабря 2022 17:53

Реклама