+6

Близнец / The Twin (2022) HDRip-AVC от DoMiNo & селезень | D

Информация о фильме
Название: Близнец
Оригинальное название: The Twin
Год выхода: 2022
Жанр: Ужасы, триллер, детектив
Режиссер: Танели Мустонен
В ролях: Тереза Палмер, Стивен Кри, Тристан Руджери, Эрго Куппас, Барбара Мартен

О фильме:
Пережив смерть одного из своих сыновей-близнецов, Рейчел и Энтони решают переехать на другой конец света в надежде начать новую главу. Но тихая скандинавская жизнь не задается. Рейчел вынуждена узнать мучительную правду о своем сыне и противостоять злым силам, которые пытаются завладеть мальчиком.

Страна: Финляндия
Студия: Don Films
Продолжительность: 01:48:13
Перевод: Дублированный | SoulPro
Субтитры: Английские

Файл
Формат: Matroska
Качество: HDRip-AVC
Видео: 720×302 at 23.976 fps, [email protected], ~867 kbps
Аудио: AAC, 2 ch, ~96 kbps — | Русский | Близнец / The Twin (2022) HDRip-AVC от DoMiNo & селезень | D
Формат субтитров: softsub (SRT)

Близнец / The Twin (2022) HDRip-AVC от DoMiNo & селезень | D

Авторизуйтесь для получения доступа к скачиванию

Нет аккаунта? Регистрация открыта и займёт меньше минуты

Вход Регистрация

x264 [info]: frame I:1331 Avg QP:11.52 size: 41173
x264 [info]: frame P:31055 Avg QP:14.76 size: 11194
x264 [info]: frame B:123299 Avg QP:16.13 size: 2427
x264 [info]: consecutive B-frames: 1,7% 1,5% 5,5% 17,0% 14,3% 47,0% 6,2% 1,6% 1,8% 0,5% 0,5% 1,1% 0,3%

General
Unique ID : 26813544362018201958023596659359571936 (0×142C19CE0AABFF79482E90B0F8DB5FE0)
Complete name : D:Новая папкаThe.Twin.2022.HDRip.x264.seleZen.mkv
Format : Matroska
Format version : Version 4
File size : 744 MiB
Duration : 1 h 48 min
Overall bit rate : 961 kb/s
Movie name : The.Twin.2022.HDRip.x264.seleZen
Encoded date : UTC 25.09.2022 19:06:03
Writing application : mkvmerge v70.0.0 ('Caught A Lite Sneeze') 64-bit
Writing library : libebml v1.4.2 + libmatroska v1.6.4
Cover : Yes
Attachments : cover.jpg / small_cover.jpg

Video
ID : 1
Format : AVC
Format/Info : Advanced Video Codec
Format profile : [email protected]
Format settings : CABAC / 14 Ref Frames
Format settings, CABAC : Yes
Format settings, Reference : 14 frames
Codec ID : V_MPEG4/ISO/AVC
Duration : 1 h 48 min
Bit rate : 867 kb/s
Width : 720 pixels
Height : 302 pixels
Display aspect ratio : 2.40:1
Frame rate mode : Constant
Frame rate : 23.976 (24000/1001) FPS
Color space : YUV
Chroma subsampling : 4:2:0
Bit depth : 8 bits
Scan type : Progressive
Bits/(Pixel*Frame) : 0.166
Stream size : 669 MiB (90%)
Title : -=DoMiNo=-
Writing library : x264 core 164 by -=DoMiNo=-
Encoding settings : cabac=1 / ref=14 / deblock=1:-3:-2 / analyse=0×3:0×133 / me=umh / subme=10 / psy=1 / psy_rd=1.02:0.02 / mixed_ref=1 / me_range=32 / chroma_me=1 / trellis=2 / 8×8dct=1 / cqm=0 / deadzone=21,11 / fast_pskip=0 / chroma_qp_offset=-3 / threads=16 / lookahead_threads=2 / sliced_threads=0 / nr=0 / decimate=0 / interlaced=0 / bluray_compat=0 / constrained_intra=0 / bframes=12 / b_pyramid=2 / b_adapt=2 / b_bias=0 / direct=3 / weightb=1 / open_gop=0 / weightp=2 / keyint=250 / keyint_min=23 / scenecut=40 / intra_refresh=0 / rc_lookahead=60 / rc=2pass / mbtree=0 / bitrate=867 / ratetol=1.0 / qcomp=0.65 / qpmin=0 / qpmax=69 / qpstep=4 / cplxblur=20.0 / qblur=0.5 / vbv_maxrate=50000 / vbv_bufsize=62500 / nal_hrd=none / filler=0 / ip_ratio=1.40 / pb_ratio=1.30 / aq=3:0.80
Language : English
Default : Yes
Forced : No
Color range : Limited
Matrix coefficients : BT.709

Audio
ID : 2
Format : AAC LC SBR
Format/Info : Advanced Audio Codec Low Complexity with Spectral Band Replication
Commercial name : HE-AAC
Format settings : Explicit
Codec ID : A_AAC-2
Duration : 1 h 48 min
Bit rate : 96.0 kb/s
Channel (s) : 2 channels
Channel layout : L R
Sampling rate : 48.0 kHz
Frame rate : 23.438 FPS (2048 SPF)
Compression mode : Lossy
Stream size : 73.3 MiB (10%)
Title : DUB
Language : Russian
Default : Yes
Forced : Yes

Text
ID : 3
Format : UTF-8
Codec ID : S_TEXT/UTF8
Codec ID/Info : UTF-8 Plain Text
Duration : 1 h 42 min
Bit rate : 27 b/s
Count of elements : 948
Stream size : 20.7 KiB (0%)
Title : Full
Language : English
Default : No
Forced : No

Menu
00:00:00.000 : en:Chapter 01
00:14:36.042 : en:Chapter 02
00:31:18.293 : en:Chapter 03
00:43:18.054 : en:Chapter 04
00:56:34.725 : en:Chapter 05
01:16:23.996 : en:Chapter 06
01:24:28.480 : en:Chapter 07
01:43:59.483 : en:Chapter 08

Другие фильмы
У данной публикации пока нет комментариев.
Будь первым, оставь своё мнение в комментариях!
Информация
Посетители, находящиеся в группе Гости, не могут оставлять комментарии к данной публикации.
Самый популярный релиз недели
RePack от селезень 48.88 Gb ...

Кино копилка
...
Какую тему вы используете?

Реклама
Последние комментарии
...

dembell56

Вчера, 22:22

...

Ponta

Вчера, 17:43

...

Vostorg

Вчера, 02:43

...

Desol

5 декабря 2022 18:21

...

Ponta

5 декабря 2022 17:53

Реклама