+6

Милая встреча / Meet Cute (2022) WEB-DLRip-AVC от DoMiNo & селезень | P

Информация о фильме
Название: Милая встреча
Оригинальное название: Meet Cute
Год выпуска: 2022
Жанр: комедия, мелодрама
Режиссер: Александр Леманн
В ролях: Кейли Куоко, Пит Дэвидсон, Дебора С. Крэйг, Сьерра Фиск, Кирк Келли, Уэсли Холлоуэй, Рок Коли, Даниэла Рейна, Эндрю Стивенс Парди, Бен Броди

О фильме:
Шейла и Гэри влюбляются с первого взгляда. Но есть нюанс: у Шейлы есть машина времени, с помощью которой она постоянно возвращается в свой самый счастливый день. В какой-то момент девушке и этого становится мало — и тогда она перемещается в прошлое Гэри, чтобы превратить его в идеального парня.

Страна: США
Производство: Anamorphic Media, Convergent Media, Orogen Entertainment, Sprockefeller Pictures, Weed Road Pictures
Продолжительность: 01:29:17
Перевод: Профессиональный (многоголосый, закадровый) | BaibaKo
Субтитры: Английские

Файл
Формат: Matroska
Качество: WEB-DLRip-AVC
Видео: 1024×512 at 23.976 fps, [email protected], ~2308 kbps
Аудио 1: AC3, 6 ch, ~384 kbps — | Русский | Милая встреча / Meet Cute (2022) WEB-DLRip-AVC от DoMiNo & селезень | P
Аудио 2: AC3, 6 ch, ~384 kbps — | Английский |
Формат субтитров: softsub (SRT)

Милая встреча / Meet Cute (2022) WEB-DLRip-AVC от DoMiNo & селезень | P

Авторизуйтесь для получения доступа к скачиванию

Нет аккаунта? Регистрация открыта и займёт меньше минуты

Вход Регистрация

x264 [info]: frame I:1272 Avg QP:15.62 size: 64362
x264 [info]: frame P:25847 Avg QP:17.09 size: 26125
x264 [info]: frame B:101329 Avg QP:19.36 size: 7781
x264 [info]: consecutive B-frames: 2,1% 2,3% 6,9% 15,5% 19,1% 29,0% 10,0% 4,9% 4,3% 0,9% 1,3% 2,8% 0,8%

General
Unique ID : 271664539257096884447209442594618262278 (0xCC60AFE5AD456F493353303A2D2AC306)
Complete name : K:Meet.Cute.2022.WEB-DLRip.x264.seleZen.mkv
Format : Matroska
Format version : Version 4
File size : 1.80 GiB
Duration : 1 h 29 min
Overall bit rate : 2 886 kb/s
Movie name : Meet.Cute.2022.WEB-DLRip.x264.seleZen
Encoded date : UTC 26.09.2022 10:15:58
Writing application : mkvmerge v70.0.0 ('Caught A Lite Sneeze') 64-bit
Writing library : libebml v1.4.2 + libmatroska v1.6.4
Cover : Yes
Attachments : cover.jpg / small_cover.jpg

Video
ID : 1
Format : AVC
Format/Info : Advanced Video Codec
Format profile : [email protected]
Format settings : CABAC / 14 Ref Frames
Format settings, CABAC : Yes
Format settings, Reference : 14 frames
Codec ID : V_MPEG4/ISO/AVC
Duration : 1 h 29 min
Bit rate : 2 308 kb/s
Width : 1 024 pixels
Height : 512 pixels
Display aspect ratio : 2.000
Frame rate mode : Constant
Frame rate : 23.976 (24000/1001) FPS
Color space : YUV
Chroma subsampling : 4:2:0
Bit depth : 8 bits
Scan type : Progressive
Bits/(Pixel*Frame) : 0.184
Stream size : 1.44 GiB (80%)
Title : -=DoMiNo=-
Writing library : x264 core 164 by -=DoMiNo=-
Encoding settings : cabac=1 / ref=14 / deblock=1:-3:-2 / analyse=0×3:0×133 / me=umh / subme=10 / psy=1 / psy_rd=1.20:0.15 / mixed_ref=1 / me_range=32 / chroma_me=1 / trellis=2 / 8×8dct=1 / cqm=0 / deadzone=21,11 / fast_pskip=1 / chroma_qp_offset=-3 / threads=16 / lookahead_threads=4 / sliced_threads=0 / nr=0 / decimate=1 / interlaced=0 / bluray_compat=0 / constrained_intra=0 / bframes=12 / b_pyramid=2 / b_adapt=2 / b_bias=0 / direct=1 / weightb=1 / open_gop=0 / weightp=2 / keyint=250 / keyint_min=23 / scenecut=40 / intra_refresh=0 / rc_lookahead=60 / rc=crf / mbtree=0 / crf=18.5 / qcomp=0.70 / qpmin=0 / qpmax=69 / qpstep=4 / vbv_maxrate=50000 / vbv_bufsize=62500 / crf_max=0.0 / nal_hrd=none / filler=0 / ip_ratio=1.40 / pb_ratio=1.30 / aq=1:0.90
Language : English
Default : Yes
Forced : No
Color range : Limited
Color primaries : BT.709
Transfer characteristics : BT.709
Matrix coefficients : BT.709

Audio #1
ID : 2
Format : AC-3
Format/Info : Audio Coding 3
Commercial name : Dolby Digital
Codec ID : A_AC3
Duration : 1 h 29 min
Bit rate mode : Constant
Bit rate : 384 kb/s
Channel (s) : 6 channels
Channel layout : L R C LFE Ls Rs
Sampling rate : 48.0 kHz
Frame rate : 31.250 FPS (1536 SPF)
Compression mode : Lossy
Stream size : 245 MiB (13%)
Title : MVO_[BaibaKo]
Language : Russian
Service kind : Complete Main
Default : Yes
Forced : Yes

Audio #2
ID : 3
Format : E-AC-3
Format/Info : Enhanced AC-3
Commercial name : Dolby Digital Plus
Codec ID : A_EAC3
Duration : 1 h 29 min
Bit rate mode : Constant
Bit rate : 192 kb/s
Channel (s) : 6 channels
Channel layout : L R C LFE Ls Rs
Sampling rate : 48.0 kHz
Frame rate : 31.250 FPS (1536 SPF)
Compression mode : Lossy
Stream size : 123 MiB (7%)
Title : Original
Language : English
Service kind : Complete Main
Default : No
Forced : No

Text
ID : 4
Format : UTF-8
Codec ID : S_TEXT/UTF8
Codec ID/Info : UTF-8 Plain Text
Duration : 1 h 24 min
Bit rate : 94 b/s
Count of elements : 2016
Stream size : 58.5 KiB (0%)
Title : Full
Language : English
Default : No
Forced : No

Menu
00:00:00.000 : en:Глава 01
00:08:20.000 : en:Глава 02
00:16:40.000 : en:Глава 03
00:25:00.000 : en:Глава 04
00:33:20.000 : en:Глава 05
00:41:40.000 : en:Глава 06
00:50:00.000 : en:Глава 07
00:58:20.000 : en:Глава 08
01:06:40.000 : en:Глава 09
01:15:00.000 : en:Глава 10
01:23:20.000 : en:Глава 11

Другие фильмы
У данной публикации пока нет комментариев.
Будь первым, оставь своё мнение в комментариях!
Информация
Посетители, находящиеся в группе Гости, не могут оставлять комментарии к данной публикации.
Самый популярный релиз недели
RePack от селезень 48.88 Gb ...

Кино копилка
...
Какую тему вы используете?

Реклама
Последние комментарии
...

dembell56

Вчера, 22:22

...

Ponta

Вчера, 17:43

...

Vostorg

Вчера, 02:43

...

Desol

5 декабря 2022 18:21

...

Ponta

5 декабря 2022 17:53

Реклама