+10

Вышка / Fall (2022) HDRip-AVC от DoMiNo & селезень | D | iTunes

Информация о фильме
Название: Вышка
Оригинальное название: Fall
Год выхода: 2022
Жанр: Триллер
Режиссер: Скотт Манн
В ролях: Грэйс Фултон, Вирджиния Гарднер, Джеффри Дин Морган, Мэйсон Гудинг, Джулия Пэйс Митчелл, Джаспер Коул

О фильме:
Бекки всегда любила экстрим, но после гибели мужа во время скалолазания она завязала с опасным увлечением. Когда ее подруга Хантер предлагает Бекки покорить вместе с ней радиомачту, героиня решает в последний раз взглянуть страху в лицо. Но на 600-метровой высоте что-то идет не так…

Страна: Великобритания, США
Студия: Capstone Studios, Tea Shop & Film Company
Продолжительность: 01:47:20
Перевод: Дублированный | iTunes
Субтитры: Английские (Full)

Файл
Формат: Matroska
Качество: HDRip-AVC
Видео: 1024x512 at 23.976 fps, [email protected], ~2212 kbps
Аудио 1: AC3, 6 ch, ~384 kbps - | Русский | Вышка / Fall (2022) HDRip-AVC от DoMiNo & селезень | D | iTunes
Аудио 2: AC3, 6 ch, ~448 kbps - | Английский |
Формат субтитров: softsub (SRT)

Вышка / Fall (2022) HDRip-AVC от DoMiNo & селезень | D | iTunes

Авторизуйтесь для получения доступа к скачиванию

Нет аккаунта? Регистрация открыта и займёт меньше минуты

Вход Регистрация

General
Unique ID : 251339007043903597112534685095930656137 (0xBD1621C9D2F5EA3D57EB2B100F847589)
Complete name : D:Fall.2022.HDRip.x264.seleZen.mkv
Format : Matroska
Format version : Version 4
File size : 2.28 GiB
Duration : 1 h 47 min
Overall bit rate : 3 046 kb/s
Movie name : Fall.2022.HDRip.x264.seleZen
Encoded date : UTC 2022-10-10 21:40:34
Writing application : mkvmerge v71.0.0 ('Altitude') 64-bit
Writing library : libebml v1.4.4 + libmatroska v1.7.1
Cover : Yes
Attachments : cover.jpg / small_cover.jpg

Video
ID : 1
Format : AVC
Format/Info : Advanced Video Codec
Format profile : [email protected]
Format settings : CABAC / 14 Ref Frames
Format settings, CABAC : Yes
Format settings, Reference : 14 frames
Codec ID : V_MPEG4/ISO/AVC
Duration : 1 h 47 min
Bit rate : 2 212 kb/s
Width : 1 024 pixels
Height : 512 pixels
Display aspect ratio : 2.000
Frame rate mode : Constant
Frame rate : 23.976 (24000/1001) FPS
Color space : YUV
Chroma subsampling : 4:2:0
Bit depth : 8 bits
Scan type : Progressive
Bits/(Pixel*Frame) : 0.176
Stream size : 1.66 GiB (73%)
Title : -=DoMiNo=-
Writing library : x264 core 164 r3099+55M 141af3f t_mod_New | by -=DoMiNo=- | X86_64
Encoding settings : cabac=1 / ref=14 / deblock=1:-3:-2 / analyse=0x3:0x133 / me=umh / subme=10 / psy=1 / fade_compensate=0.00 / psy_rd=1.03:0.05 / mixed_ref=1 / me_range=32 / chroma_me=1 / trellis=2 / 8x8dct=1 / cqm=0 / deadzone=21,11 / fast_pskip=1 / chroma_qp_offset=-3 / threads=16 / lookahead_threads=4 / sliced_threads=0 / nr=0 / decimate=1 / interlaced=0 / bluray_compat=0 / constrained_intra=0 / fgo=0 / bframes=12 / b_pyramid=2 / b_adapt=2 / b_bias=0 / direct=1 / weightb=1 / open_gop=0 / weightp=2 / keyint=250 / keyint_min=23 / scenecut=40 / intra_refresh=0 / rc_lookahead=60 / rc=crf / mbtree=0 / crf=17.8000 / qcomp=0.65 / qpmin=0:0:0 / qpmax=69:69:69 / qpstep=4 / vbv_maxrate=50000 / vbv_bufsize=62500 / crf_max=0.0 / nal_hrd=none / filler=0 / ip_ratio=1.40 / pb_ratio=1.30 / aq=3:0.80 / aq-sensitivity=10.00 / aq-factor=1.00:1.00:1.00 / aq2=0 / aq3=0
Language : English
Default : Yes
Forced : No
Color range : Limited
Color primaries : BT.709
Matrix coefficients : BT.709

Audio #1
ID : 2
Format : AC-3
Format/Info : Audio Coding 3
Commercial name : Dolby Digital
Codec ID : A_AC3
Duration : 1 h 47 min
Bit rate mode : Constant
Bit rate : 384 kb/s
Channel(s) : 6 channels
Channel layout : L R C LFE Ls Rs
Sampling rate : 48.0 kHz
Frame rate : 31.250 FPS (1536 SPF)
Compression mode : Lossy
Stream size : 295 MiB (13%)
Title : DUB_[iTunes]
Language : Russian
Service kind : Complete Main
Default : Yes
Forced : Yes

Audio #2
ID : 3
Format : AC-3
Format/Info : Audio Coding 3
Commercial name : Dolby Digital
Codec ID : A_AC3
Duration : 1 h 47 min
Bit rate mode : Constant
Bit rate : 448 kb/s
Channel(s) : 6 channels
Channel layout : L R C LFE Ls Rs
Sampling rate : 48.0 kHz
Frame rate : 31.250 FPS (1536 SPF)
Compression mode : Lossy
Stream size : 344 MiB (15%)
Title : Original
Language : English
Service kind : Complete Main
Default : No
Forced : No

Text
ID : 4
Format : UTF-8
Codec ID : S_TEXT/UTF8
Codec ID/Info : UTF-8 Plain Text
Duration : 1 h 41 min
Bit rate : 43 b/s
Count of elements : 1259
Stream size : 32.5 KiB (0%)
Title : Full
Language : English
Default : No
Forced : No

Menu
00:00:00.000 : en:Chapter 01
00:04:34.274 : en:Chapter 02
00:12:39.676 : en:Chapter 03
00:21:03.262 : en:Chapter 04
00:25:30.529 : en:Chapter 05
00:32:07.926 : en:Chapter 06
00:41:00.458 : en:Chapter 07
00:45:15.713 : en:Chapter 08
00:55:13.310 : en:Chapter 09
01:02:15.732 : en:Chapter 10
01:11:24.280 : en:Chapter 11
01:18:23.949 : en:Chapter 12
01:24:39.074 : en:Chapter 13
01:29:03.338 : en:Chapter 14
01:34:21.656 : en:Chapter 15
01:42:25.139 : en:Chapter 16

Другие фильмы
У данной публикации пока нет комментариев.
Будь первым, оставь своё мнение в комментариях!
Информация
Посетители, находящиеся в группе Гости, не могут оставлять комментарии к данной публикации.
Самый популярный релиз недели
RePack от селезень 48.88 Gb ...

Кино копилка
...
Какую тему вы используете?

Реклама
Последние комментарии
...

dembell56

Вчера, 22:22

...

Ponta

Вчера, 17:43

...

Vostorg

Вчера, 02:43

...

Desol

5 декабря 2022 18:21

...

Ponta

5 декабря 2022 17:53

Реклама