+3

Под наблюдением / Прослушка / Wire Room (2022) BDRemux 1080p от селезень | D

Информация о фильме
Название: Под наблюдением
Оригинальное название: Wire Room
Год выхода: 2022
Жанр: боевик, триллер
Режиссер: Мэтт Эскандари
В ролях: Кевин Диллон, Брюс Уиллис, Оливер Тревена, Тексас Бэттл, Шелби Кобб, Кэмерон Дуглас, Марти Дункан, Джон Д. Хикман, Себастьен Лардж, Адам Уэль Поттер

О фильме: Федеральному агенту поручено следить за членом картеля по контрабанде оружия и любой ценой сохранить ему жизнь. Когда в дом объекта врывается команда наемников, агент решает нарушить правила и связывается с гангстером напрямую, чтобы спасти ему жизнь, но подвергает опасности всю операцию.

Страна: США
Студия: Emmett/Furla Films, Five Star Films, Grindstone Entertainment Group, Herrick Entertainment, Three Point Capital
Продолжительность: 01:36:36
Перевод: Дублированный | Pride Production

Качество: BDRemux 1080p
Видео: MPEG-4 AVC, 1920x1080, 26.5 Mbit/s, 23.976 fps
Аудио #01: 48 kHz, AC3, 5.1, 448 Kbps | Дублированный | Pride Production | RUS |Под наблюдением / Прослушка / Wire Room (2022) BDRemux 1080p от селезень | D
Аудио #02: 48 kHz, E-AC3, 5.1, 448 Kbps | Дублированный | Pride Production | RUS |
Аудио #03: 48 kHz, DTS-HD MA, 5.1, 3314 Kbps | Оригинал | ENG |
Субтитры: Английские

Под наблюдением / Прослушка / Wire Room (2022) BDRemux 1080p от селезень | D

Авторизуйтесь для получения доступа к скачиванию

Нет аккаунта? Регистрация открыта и займёт меньше минуты

Вход Регистрация

General
Unique ID : 197525598012322383234631765881687318674 (0x949A0BE0D64FEF489BA718BAD3F72092)
Complete name : E:\Video1\Wire.Room.2022.BDREMUX.1080p.seleZen.mkv
Format : Matroska
Format version : Version 4
File size : 20.7 GiB
Duration : 1 h 36 min
Overall bit rate mode : Variable
Overall bit rate : 30.7 Mb/s
Movie name : Wire Room 2022 from seleZen
Encoded date : UTC 2022-09-27 00:34:16
Writing application : mkvmerge v59.0.0 ('Shining Star') 64-bit
Writing library : libebml v1.4.2 + libmatroska v1.6.4

Video
ID : 1
Format : AVC
Format/Info : Advanced Video Codec
Format profile : [email protected]
Format settings : CABAC / 4 Ref Frames
Format settings, CABAC : Yes
Format settings, Reference : 4 frames
Codec ID : V_MPEG4/ISO/AVC
Duration : 1 h 36 min
Bit rate mode : Variable
Bit rate : 26.5 Mb/s
Maximum bit rate : 35.0 Mb/s
Width : 1 920 pixels
Height : 1 080 pixels
Display aspect ratio : 16:9
Frame rate mode : Constant
Frame rate : 23.976 (24000/1001) FPS
Standard : NTSC
Color space : YUV
Chroma subsampling : 4:2:0
Bit depth : 8 bits
Scan type : Progressive
Bits/(Pixel*Frame) : 0.533
Stream size : 17.9 GiB (86%)
Language : English
Default : No
Forced : No
Color range : Limited
Color primaries : BT.709
Transfer characteristics : BT.709
Matrix coefficients : BT.709

Audio #1
ID : 2
Format : AC-3
Format/Info : Audio Coding 3
Commercial name : Dolby Digital
Codec ID : A_AC3
Duration : 1 h 36 min
Bit rate mode : Constant
Bit rate : 448 kb/s
Channel(s) : 6 channels
Channel layout : L R C LFE Ls Rs
Sampling rate : 48.0 kHz
Frame rate : 31.250 FPS (1536 SPF)
Compression mode : Lossy
Stream size : 310 MiB (1%)
Title : Dub
Language : Russian
Service kind : Complete Main
Default : Yes
Forced : Yes

Audio #2
ID : 3
Format : E-AC-3
Format/Info : Enhanced AC-3
Commercial name : Dolby Digital Plus
Codec ID : A_EAC3
Duration : 1 h 36 min
Bit rate mode : Constant
Bit rate : 448 kb/s
Channel(s) : 6 channels
Channel layout : L R C LFE Ls Rs
Sampling rate : 48.0 kHz
Frame rate : 31.250 FPS (1536 SPF)
Compression mode : Lossy
Stream size : 310 MiB (1%)
Title : Dub
Language : Russian
Service kind : Complete Main
Default : No
Forced : No

Audio #3
ID : 4
Format : DTS XLL
Format/Info : Digital Theater Systems
Commercial name : DTS-HD Master Audio
Codec ID : A_DTS
Duration : 1 h 36 min
Bit rate mode : Variable
Bit rate : 3 314 kb/s
Channel(s) : 6 channels
Channel layout : C L R Ls Rs LFE
Sampling rate : 48.0 kHz
Frame rate : 93.750 FPS (512 SPF)
Bit depth : 24 bits
Compression mode : Lossless
Stream size : 2.24 GiB (11%)
Title : Original
Language : English
Default : No
Forced : No

Text #1
ID : 5
Format : UTF-8
Codec ID : S_TEXT/UTF8
Codec ID/Info : UTF-8 Plain Text
Duration : 1 h 30 min
Bit rate : 64 b/s
Frame rate : 0.229 FPS
Count of elements : 1242
Stream size : 42.4 KiB (0%)
Title : Full
Language : English
Default : No
Forced : No

Text #2
ID : 6
Format : UTF-8
Codec ID : S_TEXT/UTF8
Codec ID/Info : UTF-8 Plain Text
Duration : 1 h 32 min
Bit rate : 67 b/s
Frame rate : 0.251 FPS
Count of elements : 1386
Stream size : 45.5 KiB (0%)
Title : SDH
Language : English
Default : No
Forced : No

Menu
00:00:00.000 : Chapter 01
00:11:16.676 : Chapter 02
00:20:13.212 : Chapter 03
00:26:52.611 : Chapter 04
00:35:09.107 : Chapter 05
00:43:00.578 : Chapter 06
00:52:10.127 : Chapter 07
00:57:15.432 : Chapter 08
01:06:26.983 : Chapter 09
01:13:15.391 : Chapter 10
01:22:24.982 : Chapter 11
01:32:43.558 : Chapter 12

Другие фильмы
У данной публикации пока нет комментариев.
Будь первым, оставь своё мнение в комментариях!
Информация
Посетители, находящиеся в группе Гости, не могут оставлять комментарии к данной публикации.
Самый популярный релиз недели
RePack от селезень 48.88 Gb ...

Кино копилка
...
Какую тему вы используете?

Реклама
Последние комментарии
...

dembell56

Вчера, 22:22

...

Ponta

Вчера, 17:43

...

Vostorg

Вчера, 02:43

...

Desol

5 декабря 2022 18:21

...

Ponta

5 декабря 2022 17:53

Реклама