+24

Быстрее пули / Bullet Train (2022) HDRip-AVC от DoMiNo & селезень | D, P, A

Информация о фильме
Название: Быстрее пули
Оригинальное название: Bullet Train
Год выхода: 2022
Жанр: Боевик, триллер, комедия
Режиссер: Дэвид Литч
В ролях: Брэд Питт, Джои Кинг, Аарон Тейлор-Джонсон, Брайан Тайри Генри, Эндрю Кодзи, Хироюки Санада, Майкл Шеннон, Сандра Буллок, Бэд Банни, Логан Лерман

Описание:
Пятеро наёмных убийц оказываются в одном сверхскоростном экспрессе. Они узнают, что их миссии связаны, и пытаются выяснить, кто и зачем собрал их вместе.

Страна: США
Студия: 87North, CTB Inc., Fuqua Films, Sony Pictures Entertainment (SPE)
Продолжительность: 02:06:31
Перевод 1: Дублированный (неофициальный) | Jaskier
Перевод 2: Профессиональный (многоголосый, закадровый) | NewComers
Перевод 3: Профессиональный (многоголосый, закадровый) | TVShows
Перевод 4: Профессиональный (многоголосый, закадровый) | LostFilm
Перевод 5: Авторский (одноголосый, закадровый) | Есарев
Субтитры: Русские (Forced, Full (FOCS 18+)), английские (Forced, Full, SDH)
Внимание: присутствует ненормативная лексика!

Файл
Формат: Matroska
Качество: HDRip-AVC
Видео: 1024×428 at 23.976 fps, [email protected], ~1939 kbps
Аудио 1: AC3, 6 ch, ~448 kbps — | Русский | Быстрее пули / Bullet Train (2022) HDRip-AVC от DoMiNo & селезень | D, P, A | Jaskier
Аудио 2: AC3, 6 ch, ~448 kbps — | Русский | | NewComers
Аудио 3: AC3, 2 ch, ~192 kbps — | Русский | | TVShows
Аудио 4: AC3, 2 ch, ~256 kbps — | Русский | | LostFilm
Аудио 5: AC3, 6 ch, ~448 kbps — | Русский | | Есарев
Аудио 6: AC3, 6 ch, ~448 kbps — | Английский | | Original
Формат субтитров: softsub (SRT)

Быстрее пули / Bullet Train (2022) HDRip-AVC от DoMiNo & селезень | D, P, A

Авторизуйтесь для получения доступа к скачиванию

Нет аккаунта? Регистрация открыта и займёт меньше минуты

Вход Регистрация

General
Unique ID : 269040656305623118171971233431646765675 (0xCA67587ACAC9EB2501862B5DABD6026B)
Complete name : D:DLTBullet.Train.2022.HDRip.x264.seleZen.mkv
Format : Matroska
Format version : Version 4
File size : 3.70 GiB
Duration : 2 h 6 min
Overall bit rate : 4 182 kb/s
Movie name : Bullet.Train.2022.HDRip.x264.seleZen
Encoded date : UTC 2022-10-10 20:07:32
Writing application : mkvmerge v71.0.0 ('Altitude') 64-bit
Writing library : libebml v1.4.4 + libmatroska v1.7.1
Cover : Yes
Attachments : cover.jpg / small_cover.jpg

Video
ID : 1
Format : AVC
Format/Info : Advanced Video Codec
Format profile : [email protected]
Format settings : CABAC / 14 Ref Frames
Format settings, CABAC : Yes
Format settings, Reference : 14 frames
Codec ID : V_MPEG4/ISO/AVC
Duration : 2 h 6 min
Bit rate : 1 939 kb/s
Width : 1 024 pixels
Height : 428 pixels
Display aspect ratio : 2.40:1
Frame rate mode : Constant
Frame rate : 23.976 (24000/1001) FPS
Color space : YUV
Chroma subsampling : 4:2:0
Bit depth : 8 bits
Scan type : Progressive
Bits/(Pixel*Frame) : 0.185
Stream size : 1.71 GiB (46%)
Title : -=DoMiNo=-
Writing library : x264 core 164 r3099+55M 141af3f t_mod_New | by -=DoMiNo=- | X86_64
Encoding settings : cabac=1 / ref=14 / deblock=1:-3:-2 / analyse=0x3:0x133 / me=umh / subme=10 / psy=1 / fade_compensate=0.00 / psy_rd=1.03:0.05 / mixed_ref=1 / me_range=32 / chroma_me=1 / trellis=2 / 8x8dct=1 / cqm=0 / deadzone=21,11 / fast_pskip=1 / chroma_qp_offset=-3 / threads=16 / lookahead_threads=3 / sliced_threads=0 / nr=0 / decimate=1 / interlaced=0 / bluray_compat=0 / constrained_intra=0 / fgo=0 / bframes=10 / b_pyramid=2 / b_adapt=2 / b_bias=0 / direct=1 / weightb=1 / open_gop=0 / weightp=2 / keyint=250 / keyint_min=23 / scenecut=40 / intra_refresh=0 / rc_lookahead=60 / rc=crf / mbtree=0 / crf=18.0000 / qcomp=0.65 / qpmin=0:0:0 / qpmax=69:69:69 / qpstep=4 / vbv_maxrate=50000 / vbv_bufsize=62500 / crf_max=0.0 / nal_hrd=none / filler=0 / ip_ratio=1.40 / pb_ratio=1.30 / aq=3:0.80 / aq-sensitivity=10.00 / aq-factor=1.00:1.00:1.00 / aq2=0 / aq3=0
Language : English
Default : Yes
Forced : No
Color range : Limited
Color primaries : BT.709
Matrix coefficients : BT.709

Audio #1
ID : 2
Format : AC-3
Format/Info : Audio Coding 3
Commercial name : Dolby Digital
Codec ID : A_AC3
Duration : 2 h 6 min
Bit rate mode : Constant
Bit rate : 448 kb/s
Channel(s) : 6 channels
Channel layout : L R C LFE Ls Rs
Sampling rate : 48.0 kHz
Frame rate : 31.250 FPS (1536 SPF)
Compression mode : Lossy
Stream size : 405 MiB (11%)
Title : DUB_[Jaskier]
Language : Russian
Service kind : Complete Main
Default : Yes
Forced : Yes

Audio #2
ID : 3
Format : AC-3
Format/Info : Audio Coding 3
Commercial name : Dolby Digital
Codec ID : A_AC3
Duration : 2 h 6 min
Bit rate mode : Constant
Bit rate : 448 kb/s
Channel(s) : 6 channels
Channel layout : L R C LFE Ls Rs
Sampling rate : 48.0 kHz
Frame rate : 31.250 FPS (1536 SPF)
Compression mode : Lossy
Stream size : 405 MiB (11%)
Title : MVO_[NewComers]
Language : Russian
Service kind : Complete Main
Default : No
Forced : No

Audio #3
ID : 4
Format : AC-3
Format/Info : Audio Coding 3
Commercial name : Dolby Digital
Codec ID : A_AC3
Duration : 2 h 6 min
Bit rate mode : Constant
Bit rate : 192 kb/s
Channel(s) : 2 channels
Channel layout : L R
Sampling rate : 48.0 kHz
Frame rate : 31.250 FPS (1536 SPF)
Compression mode : Lossy
Stream size : 174 MiB (5%)
Title : MVO_[TVShows]
Language : Russian
Service kind : Complete Main
Default : No
Forced : No

Audio #4
ID : 5
Format : AC-3
Format/Info : Audio Coding 3
Commercial name : Dolby Digital
Codec ID : A_AC3
Duration : 2 h 6 min
Bit rate mode : Constant
Bit rate : 256 kb/s
Channel(s) : 2 channels
Channel layout : L R
Sampling rate : 48.0 kHz
Frame rate : 31.250 FPS (1536 SPF)
Compression mode : Lossy
Stream size : 232 MiB (6%)
Title : MVO_[LostFilm]
Language : Russian
Service kind : Complete Main
Default : No
Forced : No

Audio #5
ID : 6
Format : AC-3
Format/Info : Audio Coding 3
Commercial name : Dolby Digital
Codec ID : A_AC3
Duration : 2 h 6 min
Bit rate mode : Constant
Bit rate : 448 kb/s
Channel(s) : 6 channels
Channel layout : L R C LFE Ls Rs
Sampling rate : 48.0 kHz
Frame rate : 31.250 FPS (1536 SPF)
Compression mode : Lossy
Stream size : 405 MiB (11%)
Title : AVO_[Yesarev]
Language : Russian
Service kind : Complete Main
Default : No
Forced : No

Audio #6
ID : 7
Format : AC-3
Format/Info : Audio Coding 3
Commercial name : Dolby Digital
Codec ID : A_AC3
Duration : 2 h 6 min
Bit rate mode : Constant
Bit rate : 448 kb/s
Channel(s) : 6 channels
Channel layout : L R C LFE Ls Rs
Sampling rate : 48.0 kHz
Frame rate : 31.250 FPS (1536 SPF)
Compression mode : Lossy
Stream size : 405 MiB (11%)
Title : Original
Language : English
Service kind : Complete Main
Default : No
Forced : No

Text #1
ID : 8
Format : UTF-8
Codec ID : S_TEXT/UTF8
Codec ID/Info : UTF-8 Plain Text
Duration : 1 h 58 min
Bit rate : 3 b/s
Count of elements : 95
Stream size : 3.47 KiB (0%)
Title : Forced
Language : Russian
Default : Yes
Forced : No

Text #2
ID : 9
Format : UTF-8
Codec ID : S_TEXT/UTF8
Codec ID/Info : UTF-8 Plain Text
Duration : 1 h 58 min
Bit rate : 93 b/s
Count of elements : 1614
Stream size : 81.7 KiB (0%)
Title : Full_[Focs]
Language : Russian
Default : No
Forced : No

Text #3
ID : 10
Format : UTF-8
Codec ID : S_TEXT/UTF8
Codec ID/Info : UTF-8 Plain Text
Duration : 1 h 54 min
Bit rate : 2 b/s
Count of elements : 77
Stream size : 1.78 KiB (0%)
Title : Forced
Language : English
Default : No
Forced : No

Text #4
ID : 11
Format : UTF-8
Codec ID : S_TEXT/UTF8
Codec ID/Info : UTF-8 Plain Text
Duration : 2 h 0 min
Bit rate : 61 b/s
Count of elements : 1662
Stream size : 54.4 KiB (0%)
Title : Full
Language : English
Default : No
Forced : No

Text #5
ID : 12
Format : UTF-8
Codec ID : S_TEXT/UTF8
Codec ID/Info : UTF-8 Plain Text
Duration : 2 h 2 min
Bit rate : 66 b/s
Count of elements : 1817
Stream size : 59.5 KiB (0%)
Title : SDH
Language : English
Default : No
Forced : No

Menu
00:00:00.000 : en:Chapter 01
00:07:30.533 : en:Chapter 02
00:14:58.439 : en:Chapter 03
00:21:59.652 : en:Chapter 04
00:30:31.038 : en:Chapter 05
00:38:59.003 : en:Chapter 06
00:47:24.258 : en:Chapter 07
00:54:30.976 : en:Chapter 08
01:01:24.556 : en:Chapter 09
01:09:27.830 : en:Chapter 10
01:15:58.387 : en:Chapter 11
01:22:23.564 : en:Chapter 12
01:29:35.161 : en:Chapter 13
01:36:52.265 : en:Chapter 14
01:43:45.302 : en:Chapter 15
01:53:57.831 : en:Chapter 16

Другие фильмы
Комментарии:

...
benzo123 29 сентября 2022 11:01
+2

Кайфанул, строго к просмотру!

Информация
Посетители, находящиеся в группе Гости, не могут оставлять комментарии к данной публикации.
Самый популярный релиз недели
RePack от селезень 48.88 Gb ...

Кино копилка
...
Какую тему вы используете?

Реклама
Последние комментарии
...

dembell56

Вчера, 22:22

...

Ponta

Вчера, 17:43

...

Vostorg

Вчера, 02:43

...

Desol

5 декабря 2022 18:21

...

Ponta

5 декабря 2022 17:53

Реклама