+13

Вышка / Fall (2022) UHD WEB-DL-HEVC 2160p от селезень | 4K | HDR | D, P | iTunes

Информация о фильме
Название: Вышка
Оригинальное название: Fall
Год выхода: 2022
Жанр: триллер
Режиссер: Скотт Манн
В ролях: Грэйс Фултон, Вирджиния Гарднер, Мэйсон Гудинг, Джеффри Дин Морган, Джаспер Коул, Даррел Деннис, Бамм Эриксен, Джулия Пэйс Митчелл, Evie Mann, Joseph Mann

О фильме: После гибели Дэна в результате падения со скалы его жена Бекки, ранее увлекавшаяся экстремальными развлечениями, впала в депрессию. Год спустя девушка всё ещё не может прийти в себя и регулярно заливает горе алкоголем, когда в её жизни внезапно появляется старая боевая подруга Хантер. Та предлагает почтить память Дэна, забравшись на телерадиомачту B67 и развеяв там его прах. Девушки отправляются к самому высокому сооружению Соединённых Штатов, даже не представляя, с чем им придётся столкнуться на его верхушке.

Страна: Великобритания, США
Студия: Capstone Group, Tea Shop & Film Company
Продолжительность: 01:47:16
Перевод(ы):
#1: Дублированный | iTunes
#2: Профессиональный многоголосый | Jaskier

Качество: WEB-DL 2160p
Видео: 3824x1904 at 23.976 fps, MPEG-H HEVC HDR, ~ 24300 kbps avg
Аудио #01: 48 kHz, AC3, 5.1, 384 Kbps | Дублированный | iTunes | RUS |Вышка / Fall (2022) UHD WEB-DL-HEVC 2160p от селезень | 4K | HDR | D, P | iTunes
Аудио #02: 48 kHz, AC3, 5.1, 384 Kbps | Профессиональный многоголосый | Jaskier | RUS |
Аудио #03: 48 kHz, AC3, 5.1, 384 Kbps | Оригинал | ENG |
Субтитры: Английские

Вышка / Fall (2022) UHD WEB-DL-HEVC 2160p от селезень | 4K | HDR | D, P | iTunes

Авторизуйтесь для получения доступа к скачиванию

Нет аккаунта? Регистрация открыта и займёт меньше минуты

Вход Регистрация

General
Unique ID : 63972361387343312759951869160925446621 (0x3020A0EE9C3E4BF9932AEC73B51841DD)
Complete name : E:\Video1\Fall.2022.WEB-DL.2160p.HDR.seleZen.mkv
Format : Matroska
Format version : Version 4
File size : 19.0 GiB
Duration : 1 h 47 min
Overall bit rate : 25.4 Mb/s
Movie name : Fall 2022 from seleZen
Encoded date : UTC 2022-09-27 10:36:13
Writing application : mkvmerge v59.0.0 ('Shining Star') 64-bit
Writing library : libebml v1.4.2 + libmatroska v1.6.4

Video
ID : 1
Format : HEVC
Format/Info : High Efficiency Video Coding
Format profile : Main [email protected]@High
HDR format : SMPTE ST 2086, HDR10 compatible
Codec ID : V_MPEGH/ISO/HEVC
Duration : 1 h 47 min
Bit rate : 24.3 Mb/s
Width : 3 824 pixels
Height : 1 904 pixels
Display aspect ratio : 2.008
Frame rate mode : Constant
Frame rate : 23.976 FPS
Color space : YUV
Chroma subsampling : 4:2:0 (Type 2)
Bit depth : 10 bits
Bits/(Pixel*Frame) : 0.139
Stream size : 18.2 GiB (95%)
Language : English
Default : Yes
Forced : No
Color range : Limited
Color primaries : BT.2020
Transfer characteristics : PQ
Matrix coefficients : BT.2020 non-constant
Mastering display color pri : Display P3
Mastering display luminance : min: 0.0001 cd/m2, max: 1000 cd/m2
Maximum Content Light Level : 860 cd/m2
Maximum Frame-Average Light : 312 cd/m2

Audio #1
ID : 2
Format : AC-3
Format/Info : Audio Coding 3
Commercial name : Dolby Digital
Codec ID : A_AC3
Duration : 1 h 47 min
Bit rate mode : Constant
Bit rate : 384 kb/s
Channel(s) : 6 channels
Channel layout : L R C LFE Ls Rs
Sampling rate : 48.0 kHz
Frame rate : 31.250 FPS (1536 SPF)
Compression mode : Lossy
Stream size : 295 MiB (2%)
Title : Dub [iTunes]
Language : Russian
Service kind : Complete Main
Default : Yes
Forced : Yes

Audio #2
ID : 3
Format : AC-3
Format/Info : Audio Coding 3
Commercial name : Dolby Digital
Codec ID : A_AC3
Duration : 1 h 47 min
Bit rate mode : Constant
Bit rate : 384 kb/s
Channel(s) : 6 channels
Channel layout : L R C LFE Ls Rs
Sampling rate : 48.0 kHz
Frame rate : 31.250 FPS (1536 SPF)
Compression mode : Lossy
Stream size : 294 MiB (2%)
Title : MVO [Jaskier]
Language : Russian
Service kind : Complete Main
Default : No
Forced : No

Audio #3
ID : 4
Format : AC-3
Format/Info : Audio Coding 3
Commercial name : Dolby Digital
Codec ID : A_AC3
Duration : 1 h 47 min
Bit rate mode : Constant
Bit rate : 384 kb/s
Channel(s) : 6 channels
Channel layout : L R C LFE Ls Rs
Sampling rate : 48.0 kHz
Frame rate : 31.250 FPS (1536 SPF)
Compression mode : Lossy
Stream size : 295 MiB (2%)
Title : Original
Language : English
Service kind : Complete Main
Default : No
Forced : No

Text
ID : 5
Format : UTF-8
Codec ID : S_TEXT/UTF8
Codec ID/Info : UTF-8 Plain Text
Duration : 1 h 41 min
Bit rate : 41 b/s
Frame rate : 0.188 FPS
Count of elements : 1140
Stream size : 31.0 KiB (0%)
Title : Full
Language : English
Default : No
Forced : No

Другие фильмы
Комментарии:

...
PEPE 8 октября 2022 20:06
0

Очень понравился фильм. Казалось бы что там можно снять интресного... А получилось заинтересовать. Жаль что не дождался 4к качества.

Информация
Посетители, находящиеся в группе Гости, не могут оставлять комментарии к данной публикации.
Самый популярный релиз недели
RePack от селезень 48.88 Gb ...

Кино копилка
...
Какую тему вы используете?

Реклама
Последние комментарии
...

dembell56

Вчера, 22:22

...

Ponta

Вчера, 17:43

...

Vostorg

Вчера, 02:43

...

Desol

5 декабря 2022 18:21

...

Ponta

5 декабря 2022 17:53

Реклама