+10

Лу / Lou (2022) WEB-DL 720p от DoMiNo & селезень | P | Jaskier

Информация о фильме
Название: Лу
Оригинальное название: Lou
Год выхода: 2022
Жанр: боевик, криминал
Режиссер: Анна Ферстер
В ролях: Джерни Смоллетт, Логан Маршалл-Грин, Эллисон Дженни, Марси Т. Хаус, Грейстон Холт, Jaycie Dotin, Мэтт Крэйвен, Тоби Левинс, Ридли Аша Бейтман, Роман Митичян и др.

Описание:
Фильм «Лу» про знаменитую охотницу за головами, которая выходит на пенсию. Она решает начать спокойную и размеренную жизнь, где не будет места для расследований и перестрелок. Вспомнить о прежних деяниях приходится после того, как на пороге дома Лу появляется неизвестная женщина. Она умоляет ее помочь, ведь ей попросту не к кому больше обратиться. Мстительнице приходится согласиться. Больше ей нечего терять, все ее родные и близкие давно мертвы, но любовь не становится для нее чуждым ощущением.

Страна: США
Продолжительность: 01:49:20
Перевод: Профессиональный (многоголосый, закадровый) | Jaskier - Присутствует ненормативная лексика!
Субтитры: Русские, английские, украинские

Файл
Формат: Matroska
Качество: WEB-DL 720p
Видео: 1280×720 at 24.000 fps, [email protected], ~1813 kbps
Аудио 1: AC3, 6 ch, ~384 kbps — | Русский | Лу / Lou (2022) WEB-DL 720p от DoMiNo & селезень | P | Jaskier
Аудио 2: E-AC-3 JOC+Atmos, 6 ch, 768 kbps — | Английский |
Формат субтитров: softsub (SRT)

Лу / Lou (2022) WEB-DL 720p от DoMiNo & селезень | P | Jaskier

Авторизуйтесь для получения доступа к скачиванию

Нет аккаунта? Регистрация открыта и займёт меньше минуты

Вход Регистрация

General
Unique ID : 338957228066936868481521963730247928894 (0xFF00C99C39B524BFFEF26E5F1874CC3E)
Complete name : D:DLTLou.2022.NF.WEB-DL.720p.x264.seleZen.mkv
Format : Matroska
Format version : Version 4
File size : 2.27 GiB
Duration : 1 h 49 min
Overall bit rate mode : Variable
Overall bit rate : 2 968 kb/s
Movie name : Lou.2022.NF.WEB-DL.720p.x264.seleZen
Encoded date : UTC 27.09.2022 14:16:22
Writing application : mkvmerge v70.0.0 ('Caught A Lite Sneeze') 64-bit
Writing library : libebml v1.4.2 + libmatroska v1.6.4
Cover : Yes
Attachments : cover.jpg / small_cover.jpg

Video
ID : 1
Format : AVC
Format/Info : Advanced Video Codec
Format profile : [email protected]
Format settings : CABAC / 3 Ref Frames
Format settings, CABAC : Yes
Format settings, Reference : 3 frames
Codec ID : V_MPEG4/ISO/AVC
Duration : 1 h 49 min
Bit rate mode : Variable
Bit rate : 1 813 kb/s
Nominal bit rate : 1 399 kb/s
Maximum bit rate : 4 515 kb/s
Width : 1 280 pixels
Height : 720 pixels
Display aspect ratio : 16:9
Frame rate mode : Constant
Frame rate : 24.000 FPS
Color space : YUV
Chroma subsampling : 4:2:0
Bit depth : 8 bits
Scan type : Progressive
Bits/(Pixel*Frame) : 0.082
Stream size : 1.38 GiB (61%)
Writing library : x264 core 148 r2727 7d026e8
Encoding settings : cabac=1 / ref=3 / deblock=1:0:0 / analyse=0×1:0×111 / me=umh / subme=10 / psy=1 / psy_rd=1.00:0.00 / mixed_ref=1 / me_range=24 / chroma_me=1 / trellis=2 / 8×8dct=0 / cqm=0 / deadzone=21,11 / fast_pskip=1 / chroma_qp_offset=-2 / threads=8 / lookahead_threads=1 / sliced_threads=0 / nr=0 / decimate=1 / interlaced=0 / bluray_compat=0 / stitchable=1 / constrained_intra=0 / bframes=2 / b_pyramid=0 / b_adapt=2 / b_bias=0 / direct=3 / weightb=1 / open_gop=0 / weightp=2 / keyint=250 / keyint_min=24 / scenecut=0 / intra_refresh=0 / rc_lookahead=48 / rc=2pass / mbtree=1 / bitrate=1399 / ratetol=1.0 / qcomp=0.50 / qpmin=6 / qpmax=51 / qpstep=4 / cplxblur=20.0 / qblur=0.5 / vbv_maxrate=4515 / vbv_bufsize=6020 / nal_hrd=vbr / filler=0 / ip_ratio=1.40 / aq=1:1.00
Language : English
Default : Yes
Forced : No

Audio #1
ID : 2
Format : AC-3
Format/Info : Audio Coding 3
Commercial name : Dolby Digital
Codec ID : A_AC3
Duration : 1 h 49 min
Bit rate mode : Constant
Bit rate : 384 kb/s
Channel (s) : 6 channels
Channel layout : L R C LFE Ls Rs
Sampling rate : 48.0 kHz
Frame rate : 31.250 FPS (1536 SPF)
Compression mode : Lossy
Stream size : 300 MiB (13%)
Title : MVO_[Jaskier]
Language : Russian
Service kind : Complete Main
Default : Yes
Forced : Yes

Audio #2
ID : 3
Format : E-AC-3 JOC
Format/Info : Enhanced AC-3 with Joint Object Coding
Commercial name : Dolby Digital Plus with Dolby Atmos
Codec ID : A_EAC3
Duration : 1 h 49 min
Bit rate mode : Constant
Bit rate : 768 kb/s
Channel (s) : 6 channels
Channel layout : L R C LFE Ls Rs
Sampling rate : 48.0 kHz
Frame rate : 31.250 FPS (1536 SPF)
Compression mode : Lossy
Stream size : 601 MiB (26%)
Title : Original
Language : English
Service kind : Complete Main
Default : No
Forced : No
Complexity index : 16
Number of dynamic objects : 15
Bed channel count : 1 channel
Bed channel configuration : LFE

Text #1
ID : 4
Format : UTF-8
Codec ID : S_TEXT/UTF8
Codec ID/Info : UTF-8 Plain Text
Duration : 1 h 46 min
Bit rate : 52 b/s
Count of elements : 920
Stream size : 41.2 KiB (0%)
Title : Full
Language : Russian
Default : No
Forced : No

Text #2
ID : 5
Format : UTF-8
Codec ID : S_TEXT/UTF8
Codec ID/Info : UTF-8 Plain Text
Duration : 1 h 37 min
Bit rate : 41 b/s
Count of elements : 970
Stream size : 29.7 KiB (0%)
Title : Full
Language : English
Default : No
Forced : No

Text #3
ID : 6
Format : UTF-8
Codec ID : S_TEXT/UTF8
Codec ID/Info : UTF-8 Plain Text
Duration : 1 h 40 min
Bit rate : 51 b/s
Count of elements : 1359
Stream size : 38.2 KiB (0%)
Title : SDH
Language : English
Default : No
Forced : No

Text #4
ID : 7
Format : UTF-8
Codec ID : S_TEXT/UTF8
Codec ID/Info : UTF-8 Plain Text
Duration : 1 h 46 min
Bit rate : 1 b/s
Count of elements : 26
Stream size : 1.45 KiB (0%)
Title : Forced
Language : Ukrainian
Default : No
Forced : Yes

Text #5
ID : 8
Format : UTF-8
Codec ID : S_TEXT/UTF8
Codec ID/Info : UTF-8 Plain Text
Duration : 1 h 46 min
Bit rate : 53 b/s
Count of elements : 904
Stream size : 41.6 KiB (0%)
Title : Ukrainian
Language : Ukrainian
Default : No
Forced : No

Другие фильмы
У данной публикации пока нет комментариев.
Будь первым, оставь своё мнение в комментариях!
Информация
Посетители, находящиеся в группе Гости, не могут оставлять комментарии к данной публикации.
Самый популярный релиз недели
RePack от селезень 48.88 Gb ...

Кино копилка
...
Какую тему вы используете?

Реклама
Последние комментарии
...

dembell56

Вчера, 22:22

...

Ponta

Вчера, 17:43

...

Vostorg

Вчера, 02:43

...

Desol

5 декабря 2022 18:21

...

Ponta

5 декабря 2022 17:53

Реклама