+7

Охотница: Руна мёртвых / The Huntress: Rune of the Dead (2019) HDRip-AVC от DoMiNo & селезень | D

Информация о фильме
Название: Охотница: Руна мёртвых
Оригинальное название: The Huntress: Rune of the Dead
Год выхода: 2019
Жанр: Драма, фэнтези, ужасы
Режиссер: Расмус Тирзитис
В ролях: Моа Стефансдоттер, Йоханна Идха, Вива Остервалл Лингбрант, Ральф Бек, Андреас Рюландер, Петер Мерлин, Урбан Бергстен, Андреа Ларсдоттер, Томми Коркеамяки, Константин Алексеев

Описание:
811 год. Руна живет с сестрой, матерью и дедом в доме посреди глухого леса. Семья переживает нелегкие времена, и надежда только на отца, который всё никак не вернется из морского похода. Когда они уже теряют надежду увидеть его вновь, он возвращается, но совсем другим. Руна пытается разобраться, что с ним произошло, и как с этим связаны странные существа, периодически появляющиеся в лесу.

Страна: Швеция, США
Студия: ITN Films, Tirzitis Entertainment
Продолжительность: 01:49:41
Перевод: Профессиональный (полное дублирование) | IVI
Субтитры: Английские

Файл
Формат: Matroska
Качество: HDRip-AVC
Видео: 1024×428 at 24.000 fps, [email protected], ~1802 kbps
Аудио 1: AC3, 6 ch, ~384 kbps — | Русский | Охотница: Руна мёртвых / The Huntress: Rune of the Dead (2019) HDRip-AVC от DoMiNo & селезень | D
Аудио 2: AC3, 6 ch, ~384 kbps — | Английский |
Формат субтитров: softsub (SRT)

Охотница: Руна мёртвых / The Huntress: Rune of the Dead (2019) HDRip-AVC от DoMiNo & селезень | D

Авторизуйтесь для получения доступа к скачиванию

Нет аккаунта? Регистрация открыта и займёт меньше минуты

Вход Регистрация

x264 [info]: frame I:992 Avg QP:13.82 size: 65454
x264 [info]: frame P:32436 Avg QP:15.07 size: 23087
x264 [info]: frame B:124517 Avg QP:17.73 size: 5371
x264 [info]: consecutive B-frames: 1,8% 2,0% 8,3% 11,5% 13,3% 50,7% 8,0% 3,4% 0,4% 0,1% 0,2% 0,2% 0,2%

General
Unique ID : 211215730308791395903610605444938387650 (0×9EE6AB83553D28FA88485B80CD14D0C2)
Complete name : K:The.Huntress.Rune.of.the.Dead.2019.HDRip.x264.seleZen.mkv
Format : Matroska
Format version : Version 4
File size : 1.97 GiB
Duration : 1 h 49 min
Overall bit rate : 2 573 kb/s
Movie name : The.Huntress.Rune.of.the.Dead.2019.HDRip.x264.seleZen
Encoded date : UTC 28.09.2022 13:28:42
Writing application : mkvmerge v70.0.0 ('Caught A Lite Sneeze') 64-bit
Writing library : libebml v1.4.2 + libmatroska v1.6.4
Cover : Yes
Attachments : cover.jpg / small_cover.jpg

Video
ID : 1
Format : AVC
Format/Info : Advanced Video Codec
Format profile : [email protected]
Format settings : CABAC / 14 Ref Frames
Format settings, CABAC : Yes
Format settings, Reference : 14 frames
Codec ID : V_MPEG4/ISO/AVC
Duration : 1 h 49 min
Bit rate : 1 802 kb/s
Width : 1 024 pixels
Height : 428 pixels
Display aspect ratio : 2.40:1
Frame rate mode : Constant
Frame rate : 24.000 FPS
Color space : YUV
Chroma subsampling : 4:2:0
Bit depth : 8 bits
Scan type : Progressive
Bits/(Pixel*Frame) : 0.171
Stream size : 1.38 GiB (70%)
Title : -=DoMiNo=-
Writing library : x264 core 164 r3099+55M 141af3f t_mod_New | by -=DoMiNo=- | X86_64
Encoding settings : cabac=1 / ref=14 / deblock=1:-3:-2 / analyse=0×3:0×133 / me=umh / subme=10 / psy=1 / fade_compensate=0.00 / psy_rd=1.05:0.15 / mixed_ref=1 / me_range=32 / chroma_me=1 / trellis=2 / 8×8dct=1 / cqm=0 / deadzone=21,11 / fast_pskip=1 / chroma_qp_offset=-3 / threads=16 / lookahead_threads=3 / sliced_threads=0 / nr=0 / decimate=1 / interlaced=0 / bluray_compat=0 / constrained_intra=0 / fgo=0 / bframes=12 / b_pyramid=2 / b_adapt=2 / b_bias=0 / direct=1 / weightb=1 / open_gop=0 / weightp=2 / keyint=250 / keyint_min=24 / scenecut=40 / intra_refresh=0 / rc_lookahead=60 / rc=crf / mbtree=0 / crf=17.3000 / qcomp=0.65 / qpmin=0:0:0 / qpmax=69:69:69 / qpstep=4 / vbv_maxrate=50000 / vbv_bufsize=62500 / crf_max=0.0 / nal_hrd=none / filler=0 / ip_ratio=1.40 / pb_ratio=1.30 / aq=3:0.80 / aq-sensitivity=10.00 / aq-factor=1.00:1.00:1.00 / aq2=0 / aq3=0
Language : English
Default : Yes
Forced : No
Color range : Limited
Color primaries : BT.709
Transfer characteristics : BT.709
Matrix coefficients : BT.709

Audio #1
ID : 2
Format : AC-3
Format/Info : Audio Coding 3
Commercial name : Dolby Digital
Codec ID : A_AC3
Duration : 1 h 49 min
Bit rate mode : Constant
Bit rate : 384 kb/s
Channel (s) : 6 channels
Channel layout : L R C LFE Ls Rs
Sampling rate : 48.0 kHz
Frame rate : 31.250 FPS (1536 SPF)
Compression mode : Lossy
Stream size : 301 MiB (15%)
Title : DUB
Language : Russian
Service kind : Complete Main
Default : Yes
Forced : Yes

Audio #2
ID : 3
Format : AC-3
Format/Info : Audio Coding 3
Commercial name : Dolby Digital
Codec ID : A_AC3
Duration : 1 h 49 min
Bit rate mode : Constant
Bit rate : 384 kb/s
Channel (s) : 6 channels
Channel layout : L R C LFE Ls Rs
Sampling rate : 48.0 kHz
Frame rate : 31.250 FPS (1536 SPF)
Compression mode : Lossy
Stream size : 301 MiB (15%)
Title : Original
Language : English
Service kind : Complete Main
Default : No
Forced : No

Text
ID : 4
Format : UTF-8
Codec ID : S_TEXT/UTF8
Codec ID/Info : UTF-8 Plain Text
Duration : 1 h 45 min
Bit rate : 29 b/s
Count of elements : 868
Stream size : 23.0 KiB (0%)
Title : Full
Language : English
Default : No
Forced : No

Menu
00:00:00.000 : en:00:00:00.000
00:10:00.000 : en:00:10:00.000
00:20:00.000 : en:00:20:00.000
00:30:00.000 : en:00:30:00.000
00:40:00.000 : en:00:40:00.000
00:50:00.000 : en:00:50:00.000
01:00:00.000 : en:01:00:00.000
01:10:00.000 : en:01:10:00.000
01:20:00.000 : en:01:20:00.000
01:30:00.000 : en:01:30:00.000
01:40:00.000 : en:01:40:00.000
00:00:00.542 : en:00:00:00.542

Другие фильмы
У данной публикации пока нет комментариев.
Будь первым, оставь своё мнение в комментариях!
Информация
Посетители, находящиеся в группе Гости, не могут оставлять комментарии к данной публикации.
Самый популярный релиз недели
RePack от селезень 48.88 Gb ...

Кино копилка
...
Какую тему вы используете?

Реклама
Последние комментарии
...

dembell56

Вчера, 22:22

...

Ponta

Вчера, 17:43

...

Vostorg

Вчера, 02:43

...

Desol

5 декабря 2022 18:21

...

Ponta

5 декабря 2022 17:53

Реклама