+9

Аббатство Даунтон 2 / Downton Abbey: A New Era (2022) BDRip-AVC от DoMiNo & селезень | Лицензия

Информация о фильме
Название: Аббатство Даунтон 2
Оригинальное название: Downton Abbey: A New Era
Год выхода: 2022
Жанр: Драма, мелодрама
Режиссер: Саймон Кёртис
В ролях: Аллен Лич, Таппенс Мидлтон, Эва Саммс, Карина Сэммс, Имелда Стонтон, Фифи Харт, Оливер Баркер, Зак Баркер, Элизабет МакГоверн, Хью Бонневилль

О фильме:
Вдовствующая графиня Вайолет Кроули получает в наследство роскошную виллу на юге Франции, и вся семья отправляется в грандиозное путешествие, чтобы раскрыть тайны новых владений. Тем временем в аббатстве Даунтон начинаются съёмки художественного фильма, и обитателям поместья приходится смириться с тем, что в Даунтон проник современный мир.

Страна: Великобритания, США
Студия: Carnival Films, Universal Pictures
Продолжительность: 02:04:32
Перевод: Дублированный | Лицензия
Субтитры: Русские (Forced, full), английские

Файл
Формат: Matroska
Качество: BDRip-AVC
Видео: 1024x428 at 23.976 fps, [email protected], ~1669 kbps
Аудио 1: AC3, 6 ch, ~384 kbps - | Русский | Аббатство Даунтон 2 / Downton Abbey: A New Era (2022) BDRip-AVC от DoMiNo & селезень | Лицензия
Аудио 2: AC3, 6 ch, ~448 kbps - | Английский |
Формат субтитров: softsub (SRT)

Аббатство Даунтон 2 / Downton Abbey: A New Era (2022) BDRip-AVC от DoMiNo & селезень | Лицензия

Авторизуйтесь для получения доступа к скачиванию

Нет аккаунта? Регистрация открыта и займёт меньше минуты

Вход Регистрация

x264 [info]: frame I:2059 Avg QP:15.32 size: 70411
x264 [info]: frame P:38177 Avg QP:17.09 size: 20013
x264 [info]: frame B:138924 Avg QP:18.96 size: 4676
x264 [info]: consecutive B-frames: 2,2% 2,5% 5,4% 27,6% 16,2% 27,8% 7,9% 9,0% 1,1% 1,1% 0,4%

General
Unique ID : 171895324777634029616225153979658763275 (0×8151D5D81E14F3CAC92A998AE4137C0B)
Complete name : D:Downton.Abbey.A.New.Era.2022.BDRip.x264.seleZen.mkv
Format : Matroska
Format version : Version 4
File size : 2.18 GiB
Duration : 2 h 4 min
Overall bit rate : 2 503 kb/s
Movie name : Downton.Abbey.A.New.Era.2022.BDRip.x264.seleZen
Encoded date : UTC 29.09.2022 09:42:15
Writing application : mkvmerge v70.0.0 ('Caught A Lite Sneeze') 64-bit
Writing library : libebml v1.4.2 + libmatroska v1.6.4
Cover : Yes
Attachments : cover.jpg / small_cover.jpg

Video
ID : 1
Format : AVC
Format/Info : Advanced Video Codec
Format profile : [email protected]
Format settings : CABAC / 14 Ref Frames
Format settings, CABAC : Yes
Format settings, Reference : 14 frames
Codec ID : V_MPEG4/ISO/AVC
Duration : 2 h 4 min
Bit rate : 1 669 kb/s
Width : 1 024 pixels
Height : 428 pixels
Display aspect ratio : 2.40:1
Frame rate mode : Constant
Frame rate : 23.976 (24000/1001) FPS
Color space : YUV
Chroma subsampling : 4:2:0
Bit depth : 8 bits
Scan type : Progressive
Bits/(Pixel*Frame) : 0.159
Stream size : 1.45 GiB (67%)
Title : -=DoMiNo=-
Writing library : x264 core 164 r3099+55M 141af3f t_mod_New | by -=DoMiNo=- | X86_64
Encoding settings : cabac=1 / ref=14 / deblock=1:-3:-2 / analyse=0×3:0×133 / me=umh / subme=10 / psy=1 / fade_compensate=0.00 / psy_rd=1.02:0.02 / mixed_ref=1 / me_range=32 / chroma_me=1 / trellis=2 / 8×8dct=1 / cqm=0 / deadzone=21,11 / fast_pskip=1 / chroma_qp_offset=-3 / threads=16 / lookahead_threads=3 / sliced_threads=0 / nr=0 / decimate=1 / interlaced=0 / bluray_compat=0 / constrained_intra=0 / fgo=0 / bframes=10 / b_pyramid=2 / b_adapt=2 / b_bias=0 / direct=1 / weightb=1 / open_gop=0 / weightp=2 / keyint=250 / keyint_min=23 / scenecut=40 / intra_refresh=0 / rc_lookahead=60 / rc=crf / mbtree=0 / crf=17.5000 / qcomp=0.65 / qpmin=0:0:0 / qpmax=69:69:69 / qpstep=4 / vbv_maxrate=50000 / vbv_bufsize=62500 / crf_max=0.0 / nal_hrd=none / filler=0 / ip_ratio=1.40 / pb_ratio=1.30 / aq=3:0.80 / aq-sensitivity=10.00 / aq-factor=1.00:1.00:1.00 / aq2=0 / aq3=0
Language : English
Default : Yes
Forced : No

Audio #1
ID : 2
Format : AC-3
Format/Info : Audio Coding 3
Commercial name : Dolby Digital
Codec ID : A_AC3
Duration : 2 h 4 min
Bit rate mode : Constant
Bit rate : 384 kb/s
Channel (s) : 6 channels
Channel layout : L R C LFE Ls Rs
Sampling rate : 48.0 kHz
Frame rate : 31.250 FPS (1536 SPF)
Compression mode : Lossy
Stream size : 342 MiB (15%)
Title : DUB
Language : Russian
Service kind : Complete Main
Default : Yes
Forced : Yes

Audio #2
ID : 3
ID in the original source m : 4352 (0×1100)
Format : AC-3
Format/Info : Audio Coding 3
Commercial name : Dolby Digital
Codec ID : A_AC3
Duration : 2 h 4 min
Bit rate mode : Constant
Bit rate : 448 kb/s
Channel (s) : 6 channels
Channel layout : L R C LFE Ls Rs
Sampling rate : 48.0 kHz
Frame rate : 31.250 FPS (1536 SPF)
Compression mode : Lossy
Stream size : 399 MiB (18%)
Title : Original
Language : English
Service kind : Complete Main
Default : No
Forced : No
Original source medium : Blu-ray

Text #1
ID : 4
Format : UTF-8
Codec ID : S_TEXT/UTF8
Codec ID/Info : UTF-8 Plain Text
Duration : 1 h 16 min
Bit rate : 0 b/s
Count of elements : 13
Stream size : 498 Bytes (0%)
Title : Forced
Language : Russian
Default : Yes
Forced : No

Text #2
ID : 5
Format : UTF-8
Codec ID : S_TEXT/UTF8
Codec ID/Info : UTF-8 Plain Text
Duration : 1 h 59 min
Bit rate : 120 b/s
Count of elements : 2005
Stream size : 105 KiB (0%)
Title : Full
Language : Russian
Default : No
Forced : No

Text #3
ID : 6
Format : UTF-8
Codec ID : S_TEXT/UTF8
Codec ID/Info : UTF-8 Plain Text
Duration : 1 h 59 min
Bit rate : 89 b/s
Count of elements : 2186
Stream size : 78.6 KiB (0%)
Title : SDH
Language : English
Default : No
Forced : No

Menu
00:00:00.000 : en:Chapter 01
00:08:42.271 : en:Chapter 02
00:18:59.179 : en:Chapter 03
00:28:49.060 : en:Chapter 04
00:38:33.519 : en:Chapter 05
00:43:06.333 : en:Chapter 06
00:49:23.335 : en:Chapter 07
00:56:17.415 : en:Chapter 08
01:02:20.737 : en:Chapter 09
01:07:46.353 : en:Chapter 10
01:15:36.532 : en:Chapter 11
01:20:57.769 : en:Chapter 12
01:27:59.524 : en:Chapter 13
01:32:38.761 : en:Chapter 14
01:37:25.631 : en:Chapter 15
01:43:31.997 : en:Chapter 16
01:49:05.163 : en:Chapter 17
01:51:55.834 : en:Chapter 18
01:59:04.470 : en:Chapter 19
02:00:14.957 : en:Chapter 20

Другие фильмы
У данной публикации пока нет комментариев.
Будь первым, оставь своё мнение в комментариях!
Информация
Посетители, находящиеся в группе Гости, не могут оставлять комментарии к данной публикации.
Самый популярный релиз недели
RePack от селезень 48.88 Gb ...

Кино копилка
...
Какую тему вы используете?

Реклама
Последние комментарии
...

dembell56

Вчера, 22:22

...

Ponta

Вчера, 17:43

...

Vostorg

Вчера, 02:43

...

Desol

5 декабря 2022 18:21

...

Ponta

5 декабря 2022 17:53

Реклама