+5

Человек из Рима / The Man from Rome (2022) WEB-DL 1080p от селезень | D

Информация о фильме
Название: Человек из Рима 
Оригинальное название: The Man from Rome
Год выхода: 2022
Жанр: триллер, детектив
Режиссер: Серджо Дау
В ролях: Ричард Армитедж, Франко Неро, Пол Фримен, Карлос Куэвас, Финола Флэнаган, Пол Гилфойл, Уилл Кин, Амайя Саламанка, Хорхе Санс, Питер Вайвз Ньюи

О фильме: Взломав компьютер Папы Римского, неизвестный хакер оставляет сообщение о загадочных событиях, произошедших в старинной церкви Севильи. Ватикан поручает отцу Куарту тайно расследовать это дело. Но согласится ли древний храм поделиться своими секретами или накажет любого, кто осмелится до них добраться?

Страна: Испания, Колумбия, США
Студия: Amazon Prime Video, Augustus Color, Enrique Cerezo Producciones Cinematográficas S.A., Fundación Enic Producciones, Instituto de la Cinematografia y de las Artes Audiovisuales, North By Northwest, Piel del Tambor, Radio Televisión Española (RTVE)
Продолжительность: 01:55:22
Перевод: Дублированный | Кинопоиск HD

Качество: WEB-DL 1080p
Видео: MPEG-4 AVC, 1920x804, 3600 Kbit/s, 25.000 fps
Аудио: 48 kHz, AC3, 5.1, 448 Kbps | Дублированный | Кинопоиск HD | RUS |Человек из Рима / The Man from Rome (2022) WEB-DL 1080p от селезень | D
Субтитры: Русские (full)

Человек из Рима / The Man from Rome (2022) WEB-DL 1080p от селезень | D

Авторизуйтесь для получения доступа к скачиванию

Нет аккаунта? Регистрация открыта и займёт меньше минуты

Вход Регистрация

General
Unique ID : 47693450314614552810592508645568524365 (0x23E16CA6367A419B0BAE72FC32DDB04D)
Complete name : E:\Video1\The.Man.from.Rome.WEB-DL.1080p.seleZen.mkv
Format : Matroska
Format version : Version 4
File size : 3.26 GiB
Duration : 1 h 55 min
Overall bit rate : 4 050 kb/s
Movie name : The Man from Rome 2022 from seleZen
Encoded date : UTC 2022-09-29 13:31:47
Writing application : mkvmerge v59.0.0 ('Shining Star') 64-bit
Writing library : libebml v1.4.2 + libmatroska v1.6.4

Video
ID : 1
Format : AVC
Format/Info : Advanced Video Codec
Format profile : [email protected]
Format settings : CABAC / 2 Ref Frames
Format settings, CABAC : Yes
Format settings, Reference : 2 frames
Codec ID : V_MPEG4/ISO/AVC
Duration : 1 h 55 min
Bit rate : 3 600 kb/s
Width : 1 920 pixels
Height : 804 pixels
Display aspect ratio : 2.40:1
Frame rate mode : Constant
Frame rate : 25.000 FPS
Color space : YUV
Chroma subsampling : 4:2:0
Bit depth : 8 bits
Scan type : Progressive
Bits/(Pixel*Frame) : 0.093
Stream size : 2.90 GiB (89%)
Language : English
Default : Yes
Forced : No

Audio
ID : 2
Format : AC-3
Format/Info : Audio Coding 3
Commercial name : Dolby Digital
Codec ID : A_AC3
Duration : 1 h 55 min
Bit rate mode : Constant
Bit rate : 448 kb/s
Channel(s) : 6 channels
Channel layout : L R C LFE Ls Rs
Sampling rate : 48.0 kHz
Frame rate : 31.250 FPS (1536 SPF)
Compression mode : Lossy
Stream size : 370 MiB (11%)
Title : Dub
Language : Russian
Service kind : Complete Main
Default : Yes
Forced : Yes

Text
ID : 3
Format : UTF-8
Codec ID : S_TEXT/UTF8
Codec ID/Info : UTF-8 Plain Text
Duration : 1 h 50 min
Bit rate : 108 b/s
Frame rate : 0.191 FPS
Count of elements : 1270
Stream size : 87.8 KiB (0%)
Title : Full
Language : Russian
Default : No
Forced : No

Другие фильмы
У данной публикации пока нет комментариев.
Будь первым, оставь своё мнение в комментариях!
Информация
Посетители, находящиеся в группе Гости, не могут оставлять комментарии к данной публикации.
Самый популярный релиз недели
RePack от селезень 48.88 Gb ...

Кино копилка
...
Какую тему вы используете?

Реклама
Последние комментарии
...

dembell56

Вчера, 22:22

...

Ponta

Вчера, 17:43

...

Vostorg

Вчера, 02:43

...

Desol

5 декабря 2022 18:21

...

Ponta

5 декабря 2022 17:53

Реклама