+8

Человек из Рима / The Man from Rome (2022) WEB-DLRip-AVC от DoMiNo & селезень | D

Информация о фильме
Название: Человек из Рима
Оригинальное название: The Man from Rome
Год выхода: 2022
Жанр: Триллер, детектив
Режиссер: Серджо Дау
В ролях: Ричард Армитедж, Карлос Куэвас, Франко Неро, Финола Флэнаган, Пол Фримен, Уилл Кин, Пол Гилфойл, Амайя Саламанка, Федор Аткин, Хорхе Санс

О фильме:
Анонимный хакер взламывает систему безопасности Ватикана и отправляет Папе Римскому сообщение о загадочных событиях в церкви Севильи XVII века. Расследовать дело поручают отцу Куарту из отдела внешних церковных связей. Но готов ли старинный храм делиться своими секретами?

Страна: Испания, Колумбия, США
Студия: Amazon Prime Video, Augustus Color, Enrique Cerezo Producciones Cinematográficas S.A., Fundación Enic Producciones, Instituto de la Cinematografia y de las Artes Audiovisuales, North By Northwest, Piel del Tambor, Radio Televisión Española (RTVE)
Продолжительность: 01:55:22
Перевод: Дублированный | Кинопоиск HD
Субтитры: Русские (full)

Файл
Формат: Matroska
Качество: WEB-DLRip-AVC
Видео: 1024×428 at 25.000 fps, [email protected], ~1483 kbps
Аудио 1: AC3, 6 ch, ~448 kbps — | Русский | Человек из Рима / The Man from Rome (2022) WEB-DLRip-AVC от DoMiNo & селезень | D
Аудио 2: AC3, 6 ch, ~448 kbps — | Английский |
Формат субтитров: softsub (SRT)

Человек из Рима / The Man from Rome (2022) WEB-DLRip-AVC от DoMiNo & селезень | D

Авторизуйтесь для получения доступа к скачиванию

Нет аккаунта? Регистрация открыта и займёт меньше минуты

Вход Регистрация

x264 [info]: frame I:1691 Avg QP:14.89 size: 53618
x264 [info]: frame P:43953 Avg QP:16.27 size: 15691
x264 [info]: frame B:127409 Avg QP:18.96 size: 3944
x264 [info]: consecutive B-frames: 2,7% 4,3% 14,7% 38,8% 13,2% 23,7% 1,4% 0,5% 0,2% 0,2% 0,4%

General
Unique ID : 282633708330992546862114200988036239386 (0xD4A145AFFFD42D10EB4A40A9F0DE101A)
Complete name : L:The.Man.from.Rome.2022.WEB-DLRip.x264.seleZen.mkv
Format : Matroska
Format version : Version 4
File size : 1.92 GiB
Duration : 1 h 55 min
Overall bit rate : 2 381 kb/s
Movie name : The.Man.from.Rome.2022.WEB-DLRip.x264.seleZen
Encoded date : UTC 29.09.2022 15:32:17
Writing application : mkvmerge v70.0.0 ('Caught A Lite Sneeze') 64-bit
Writing library : libebml v1.4.2 + libmatroska v1.6.4
Cover : Yes
Attachments : cover.jpg / small_cover.jpg

Video
ID : 1
Format : AVC
Format/Info : Advanced Video Codec
Format profile : [email protected]
Format settings : CABAC / 14 Ref Frames
Format settings, CABAC : Yes
Format settings, Reference : 14 frames
Codec ID : V_MPEG4/ISO/AVC
Duration : 1 h 55 min
Bit rate : 1 483 kb/s
Width : 1 024 pixels
Height : 428 pixels
Display aspect ratio : 2.40:1
Frame rate mode : Constant
Frame rate : 25.000 FPS
Color space : YUV
Chroma subsampling : 4:2:0
Bit depth : 8 bits
Scan type : Progressive
Bits/(Pixel*Frame) : 0.135
Stream size : 1.19 GiB (62%)
Title : -=DoMiNo=-
Writing library : x264 core 164 r3099+55M 141af3f t_mod_New | by -=DoMiNo=- | X86_64
Encoding settings : cabac=1 / ref=14 / deblock=1:-3:-2 / analyse=0×3:0×133 / me=umh / subme=10 / psy=1 / fade_compensate=0.00 / psy_rd=1.03:0.15 / mixed_ref=1 / me_range=32 / chroma_me=1 / trellis=2 / 8×8dct=1 / cqm=0 / deadzone=21,11 / fast_pskip=1 / chroma_qp_offset=-3 / threads=13 / lookahead_threads=3 / sliced_threads=0 / nr=0 / decimate=1 / interlaced=0 / bluray_compat=0 / constrained_intra=0 / fgo=0 / bframes=10 / b_pyramid=2 / b_adapt=2 / b_bias=0 / direct=1 / weightb=1 / open_gop=0 / weightp=2 / keyint=250 / keyint_min=25 / scenecut=40 / intra_refresh=0 / rc_lookahead=60 / rc=crf / mbtree=0 / crf=18.5000 / qcomp=0.65 / qpmin=0:0:0 / qpmax=69:69:69 / qpstep=4 / vbv_maxrate=50000 / vbv_bufsize=62500 / crf_max=0.0 / nal_hrd=none / filler=0 / ip_ratio=1.40 / pb_ratio=1.30 / aq=3:0.80 / aq-sensitivity=10.00 / aq-factor=1.00:1.00:1.00 / aq2=0 / aq3=0
Language : English
Default : Yes
Forced : No

Audio #1
ID : 2
Format : AC-3
Format/Info : Audio Coding 3
Commercial name : Dolby Digital
Codec ID : A_AC3
Duration : 1 h 55 min
Bit rate mode : Constant
Bit rate : 448 kb/s
Channel (s) : 6 channels
Channel layout : L R C LFE Ls Rs
Sampling rate : 48.0 kHz
Frame rate : 31.250 FPS (1536 SPF)
Compression mode : Lossy
Stream size : 370 MiB (19%)
Title : Dub
Language : Russian
Service kind : Complete Main
Default : Yes
Forced : Yes

Audio #2
ID : 3
Format : AC-3
Format/Info : Audio Coding 3
Commercial name : Dolby Digital
Codec ID : A_AC3
Duration : 1 h 55 min
Bit rate mode : Constant
Bit rate : 448 kb/s
Channel (s) : 6 channels
Channel layout : L R C LFE Ls Rs
Sampling rate : 48.0 kHz
Frame rate : 31.250 FPS (1536 SPF)
Compression mode : Lossy
Stream size : 370 MiB (19%)
Title : Original
Language : English
Service kind : Complete Main
Default : No
Forced : No

Text
ID : 4
Format : UTF-8
Codec ID : S_TEXT/UTF8
Codec ID/Info : UTF-8 Plain Text
Duration : 1 h 50 min
Bit rate : 108 b/s
Count of elements : 1270
Stream size : 87.8 KiB (0%)
Title : Full
Language : Russian
Default : No
Forced : No

Menu
00:00:00.000 : en:Глава 01
00:07:30.000 : en:Глава 02
00:15:00.000 : en:Глава 03
00:22:30.000 : en:Глава 04
00:30:00.000 : en:Глава 05
00:37:30.000 : en:Глава 06
00:45:00.000 : en:Глава 07
00:52:30.000 : en:Глава 08
01:00:00.000 : en:Глава 09
01:07:30.000 : en:Глава 10
01:15:00.000 : en:Глава 11
01:22:30.000 : en:Глава 12
01:30:00.000 : en:Глава 13
01:37:30.000 : en:Глава 14
01:45:00.000 : en:Глава 15
01:52:30.000 : en:Глава 16

Другие фильмы
У данной публикации пока нет комментариев.
Будь первым, оставь своё мнение в комментариях!
Информация
Посетители, находящиеся в группе Гости, не могут оставлять комментарии к данной публикации.
Самый популярный релиз недели
RePack от селезень 48.88 Gb ...

Кино копилка
...
Какую тему вы используете?

Реклама
Последние комментарии
...

dembell56

Вчера, 22:22

...

Ponta

Вчера, 17:43

...

Vostorg

Вчера, 02:43

...

Desol

5 декабря 2022 18:21

...

Ponta

5 декабря 2022 17:53

Реклама