+10

Месть Банши / Code Name Banshee (2022) BDRip-AVC от DoMiNo & селезень | D

Информация о фильме
Название: Месть Банши
Оригинальное название: Code Name Banshee
Год выхода: 2022
Жанр: Боевик, триллер
Режиссер: Джон Кейес
В ролях: Антонио Бандерас, Джейми Кинг, Томми Флэнаган, Ким ДеЛонги, Катрин Дэвис, Кейл Окли Зеперник, Александр Вайшельбойм, Джон Вольман, Левон Панек, Дилан Флэшнер

О фильме:
Калеб — бывший правительственный киллер, залегший на дно. От своей протеже Банши, такой же смертоносной убийцы, как он сам, Калеб узнает, что за его голову назначена награда. Герой вынужден вновь взяться за старое.

Страна: США
Студия: Banshee Productions, Bee-Hive Productions, BondIt
Продолжительность: 01:32:52
Перевод: Дублированный | Велес
Субтитры: Английские

Файл
Формат: Matroska
Качество: BDRip-AVC
Видео: 1024×428 at 23.976 fps, [email protected], ~2271 kbps
Аудио 1: AC3, 6 ch, ~384 kbps — | Русский | Месть Банши / Code Name Banshee (2022) BDRip-AVC от DoMiNo & селезень | D
Аудио 2: AC3, 6 ch, ~384 kbps — | Английский |
Формат субтитров: softsub (SRT)

Месть Банши / Code Name Banshee (2022) BDRip-AVC от DoMiNo & селезень | D

Авторизуйтесь для получения доступа к скачиванию

Нет аккаунта? Регистрация открыта и займёт меньше минуты

Вход Регистрация

x264 [info]: frame I:1027 Avg QP:14.04 size: 51258
x264 [info]: frame P:25638 Avg QP:15.84 size: 24593
x264 [info]: frame B:106950 Avg QP:18.52 size: 8405
x264 [info]: consecutive B-frames: 2,2% 2,3% 5,8% 12,4% 12,9% 37,3% 6,9% 1,9% 3,9% 2,9% 2,1% 2,3% 2,2% 1,5% 1,2% 0,7% 1,6%

General
Unique ID : 311860839705899379174253526629469952255 (0xEA9E3685039B6C6D3BE3C223BA8098FF)
Complete name : D:Code.Name.Banshee.2022.BDRip.x264.seleZen.mkv
Format : Matroska
Format version : Version 4
File size : 1.97 GiB
Duration : 1 h 32 min
Overall bit rate : 3 041 kb/s
Movie name : Code.Name.Banshee.2022.BDRip.x264.seleZen
Encoded date : UTC 30.09.2022 11:41:25
Writing application : mkvmerge v70.0.0 ('Caught A Lite Sneeze') 64-bit
Writing library : libebml v1.4.2 + libmatroska v1.6.4
Cover : Yes
Attachments : cover.jpg / small_cover.jpg

Video
ID : 1
Format : AVC
Format/Info : Advanced Video Codec
Format profile : [email protected]
Format settings : CABAC / 14 Ref Frames
Format settings, CABAC : Yes
Format settings, Reference : 14 frames
Codec ID : V_MPEG4/ISO/AVC
Duration : 1 h 32 min
Bit rate : 2 271 kb/s
Width : 1 024 pixels
Height : 428 pixels
Display aspect ratio : 2.40:1
Frame rate mode : Constant
Frame rate : 23.976 (24000/1001) FPS
Color space : YUV
Chroma subsampling : 4:2:0
Bit depth : 8 bits
Scan type : Progressive
Bits/(Pixel*Frame) : 0.216
Stream size : 1.47 GiB (75%)
Title : -=DoMiNo=-
Writing library : x264 core 164 r3099+55M 141af3f t_mod_New | by -=DoMiNo=- | X86_64
Encoding settings : cabac=1 / ref=14 / deblock=1:-3:-2 / analyse=0×3:0×133 / me=umh / subme=10 / psy=1 / fade_compensate=0.00 / psy_rd=1.03:0.05 / mixed_ref=1 / me_range=32 / chroma_me=1 / trellis=2 / 8×8dct=1 / cqm=0 / deadzone=21,11 / fast_pskip=1 / chroma_qp_offset=-3 / threads=16 / lookahead_threads=3 / sliced_threads=0 / nr=0 / decimate=1 / interlaced=0 / bluray_compat=0 / constrained_intra=0 / fgo=0 / bframes=16 / b_pyramid=2 / b_adapt=2 / b_bias=0 / direct=1 / weightb=1 / open_gop=0 / weightp=2 / keyint=250 / keyint_min=23 / scenecut=40 / intra_refresh=0 / rc_lookahead=60 / rc=crf / mbtree=0 / crf=18.0000 / qcomp=0.65 / qpmin=0:0:0 / qpmax=69:69:69 / qpstep=4 / vbv_maxrate=50000 / vbv_bufsize=62500 / crf_max=0.0 / nal_hrd=none / filler=0 / ip_ratio=1.40 / pb_ratio=1.30 / aq=3:0.80 / aq-sensitivity=10.00 / aq-factor=1.00:1.00:1.00 / aq2=0 / aq3=0
Language : English
Default : Yes
Forced : No
Color range : Limited
Color primaries : BT.709
Transfer characteristics : BT.709
Matrix coefficients : BT.709

Audio #1
ID : 2
Format : AC-3
Format/Info : Audio Coding 3
Commercial name : Dolby Digital
Codec ID : A_AC3
Duration : 1 h 32 min
Bit rate mode : Constant
Bit rate : 384 kb/s
Channel (s) : 6 channels
Channel layout : L R C LFE Ls Rs
Sampling rate : 48.0 kHz
Frame rate : 31.250 FPS (1536 SPF)
Compression mode : Lossy
Stream size : 255 MiB (13%)
Title : Dub
Language : Russian
Service kind : Complete Main
Default : Yes
Forced : Yes

Audio #2
ID : 3
Format : AC-3
Format/Info : Audio Coding 3
Commercial name : Dolby Digital
Codec ID : A_AC3
Duration : 1 h 32 min
Bit rate mode : Constant
Bit rate : 384 kb/s
Channel (s) : 6 channels
Channel layout : L R C LFE Ls Rs
Sampling rate : 48.0 kHz
Frame rate : 31.250 FPS (1536 SPF)
Compression mode : Lossy
Stream size : 255 MiB (13%)
Title : Original
Language : English
Service kind : Complete Main
Default : No
Forced : No

Text #1
ID : 4
Format : UTF-8
Codec ID : S_TEXT/UTF8
Codec ID/Info : UTF-8 Plain Text
Duration : 1 h 31 min
Bit rate : 39 b/s
Count of elements : 946
Stream size : 26.5 KiB (0%)
Title : Full
Language : English
Default : No
Forced : No

Text #2
ID : 5
Format : UTF-8
Codec ID : S_TEXT/UTF8
Codec ID/Info : UTF-8 Plain Text
Duration : 1 h 32 min
Bit rate : 44 b/s
Count of elements : 1125
Stream size : 29.9 KiB (0%)
Title : SDH
Language : English
Default : No
Forced : No

Menu
00:00:00.000 : en:Chapter 01
00:07:00.461 : en:Chapter 02
00:13:57.086 : en:Chapter 03
00:21:07.975 : en:Chapter 04
00:26:55.238 : en:Chapter 05
00:32:15.642 : en:Chapter 06
00:44:08.270 : en:Chapter 07
00:52:38.155 : en:Chapter 08
01:01:03.201 : en:Chapter 09
01:10:09.872 : en:Chapter 10
01:21:27.048 : en:Chapter 11
01:28:20.545 : en:Chapter 12

Другие фильмы
У данной публикации пока нет комментариев.
Будь первым, оставь своё мнение в комментариях!
Информация
Посетители, находящиеся в группе Гости, не могут оставлять комментарии к данной публикации.
Самый популярный релиз недели
RePack от селезень 48.88 Gb ...

Кино копилка
...
Какую тему вы используете?

Реклама
Последние комментарии
...

dembell56

Вчера, 22:22

...

Ponta

Вчера, 17:43

...

Vostorg

Вчера, 02:43

...

Desol

5 декабря 2022 18:21

...

Ponta

5 декабря 2022 17:53

Реклама