+11

Блондинка / Blonde (2022) WEB-DLRip-AVC от DoMiNo & селезень | P

Информация о фильме
Название: Блондинка
Оригинальное название: Blonde
Год выпуска: 2022
Жанр: Биография, Драма
Режиссер: Эндрю Доминик / Andrew Dominik
В ролях: Ана де Армас, Гаррет Диллахант, Бобби Каннавале, Эдриан Броуди, Джулианна Николсон, Скут МакНэри, Сара Пэкстон, Ребекка Висоцки, Завьер Сэмюэл, Тоби Хасс, Люси ДеВито, Катрин Дент, Спенсер Гаррет, Каспар Филлипсон, Дэн Батлер

О фильме:
Байопик о жизни Нормы Джин Бейкер, ставшей самой известной блондинкой в истории Голливуда Мэрилин Монро. Ради этого ей пришлось проделать тяжелый путь от простой девчонки, росшей с безумной мамашей, к статусу секс-символа, заработанному через боль и сломанную психику. Экранизация одноимённого романа Джойс Кэрол Оутс.

Выпущено: США / Plan B Entertainment
Продолжительность: 02:47:28
Перевод: Профессиональный (многоголосый, закадровый) | Jaskier - Присутствует ненормативная лексика!
Субтитры: Русские (Forced, Full), английские

Файл
Формат: Matroska
Качество: WEB-DLRip-AVC
Видео: 1024x576 at 24.000 fps, [email protected], ~1592 kbps
Аудио 1: AC3, 6 ch, ~384 kbps - | Русский | Блондинка / Blonde (2022) WEB-DLRip-AVC от DoMiNo & селезень | P
Аудио 2: AC3, 6 ch, ~384 kbps - | Английский |
Формат субтитров: softsub (SRT)

Блондинка / Blonde (2022) WEB-DLRip-AVC от DoMiNo & селезень | P

Авторизуйтесь для получения доступа к скачиванию

Нет аккаунта? Регистрация открыта и займёт меньше минуты

Вход Регистрация

x264 [info]: frame I:1289 Avg QP:14.44 size: 39378
x264 [info]: frame P:43132 Avg QP:17.97 size: 18603
x264 [info]: frame B:196734 Avg QP:19.77 size: 5829
x264 [info]: consecutive B-frames: 1.5% 1.5% 4.1% 10.9% 10.8% 39.1% 8.6% 2.1% 2.3% 5.2% 3.5% 1.4% 0.9%

General
Unique ID : 265659459580838420552529928513932368781 (0xC7DC269C3F5838AF54C6AC58916A1B8D)
Complete name : L:Blonde.2022.NF.WEB-DLRip.x264.seleZen.mkv
Format : Matroska
Format version : Version 4
File size : 2.76 GiB
Duration : 2 h 47 min
Overall bit rate : 2 363 kb/s
Movie name : Blonde.2022.NF.WEB-DLRip.x264.seleZen
Encoded date : UTC 2022-09-30 16:24:45
Writing application : mkvmerge v70.0.0 ('Caught A Lite Sneeze') 64-bit
Writing library : libebml v1.4.2 + libmatroska v1.6.4
Cover : Yes
Attachments : cover.jpg / small_cover.jpg

Video
ID : 1
Format : AVC
Format/Info : Advanced Video Codec
Format profile : [email protected]
Format settings : CABAC / 10 Ref Frames
Format settings, CABAC : Yes
Format settings, Reference : 10 frames
Codec ID : V_MPEG4/ISO/AVC
Duration : 2 h 47 min
Bit rate : 1 592 kb/s
Width : 1 024 pixels
Height : 576 pixels
Display aspect ratio : 16:9
Frame rate mode : Constant
Frame rate : 24.000 FPS
Color space : YUV
Chroma subsampling : 4:2:0
Bit depth : 8 bits
Scan type : Progressive
Bits/(Pixel*Frame) : 0.112
Stream size : 1.86 GiB (67%)
Title : -=DoMiNo=-
Writing library : x264 core 164 r3099+55M 141af3f t_mod_New | by -=DoMiNo=- | X86_64
Encoding settings : cabac=1 / ref=10 / deblock=1:0:0 / analyse=0x3:0x133 / me=umh / subme=10 / psy=1 / fade_compensate=0.00 / psy_rd=1.00:0.00 / mixed_ref=1 / me_range=32 / chroma_me=1 / trellis=2 / 8x8dct=1 / cqm=0 / deadzone=21,11 / fast_pskip=1 / chroma_qp_offset=-2 / threads=18 / lookahead_threads=4 / sliced_threads=0 / nr=0 / decimate=1 / interlaced=0 / bluray_compat=0 / constrained_intra=0 / fgo=0 / bframes=12 / b_pyramid=2 / b_adapt=2 / b_bias=0 / direct=1 / weightb=1 / open_gop=0 / weightp=2 / keyint=250 / keyint_min=24 / scenecut=40 / intra_refresh=0 / rc_lookahead=60 / rc=crf / mbtree=0 / crf=19.5000 / qcomp=0.65 / qpmin=0:0:0 / qpmax=69:69:69 / qpstep=4 / vbv_maxrate=50000 / vbv_bufsize=62500 / crf_max=0.0 / nal_hrd=none / filler=0 / ip_ratio=1.40 / pb_ratio=1.30 / aq=1:0.80 / aq-sensitivity=10.00 / aq-factor=1.00:1.00:1.00 / aq2=0 / aq3=0
Language : English
Default : Yes
Forced : No

Audio #1
ID : 2
Format : AC-3
Format/Info : Audio Coding 3
Commercial name : Dolby Digital
Codec ID : A_AC3
Duration : 2 h 47 min
Bit rate mode : Constant
Bit rate : 384 kb/s
Channel(s) : 6 channels
Channel layout : L R C LFE Ls Rs
Sampling rate : 48.0 kHz
Frame rate : 31.250 FPS (1536 SPF)
Compression mode : Lossy
Stream size : 460 MiB (16%)
Title : MVO_[Jaskier]
Language : Russian
Service kind : Complete Main
Default : Yes
Forced : Yes

Audio #2
ID : 3
Format : AC-3
Format/Info : Audio Coding 3
Commercial name : Dolby Digital
Codec ID : A_AC3
Duration : 2 h 47 min
Bit rate mode : Constant
Bit rate : 384 kb/s
Channel(s) : 6 channels
Channel layout : L R C LFE Ls Rs
Sampling rate : 48.0 kHz
Frame rate : 31.250 FPS (1536 SPF)
Compression mode : Lossy
Stream size : 460 MiB (16%)
Title : Original
Language : English
Service kind : Complete Main
Default : No
Forced : No

Text #1
ID : 4
Format : UTF-8
Codec ID : S_TEXT/UTF8
Codec ID/Info : UTF-8 Plain Text
Duration : 2 h 45 min
Bit rate : 1 b/s
Count of elements : 27
Stream size : 1.53 KiB (0%)
Title : Forced
Language : Russian
Default : Yes
Forced : No

Text #2
ID : 5
Format : UTF-8
Codec ID : S_TEXT/UTF8
Codec ID/Info : UTF-8 Plain Text
Duration : 2 h 45 min
Bit rate : 53 b/s
Count of elements : 1422
Stream size : 65.1 KiB (0%)
Title : Full
Language : Russian
Default : No
Forced : No

Text #3
ID : 6
Format : UTF-8
Codec ID : S_TEXT/UTF8
Codec ID/Info : UTF-8 Plain Text
Duration : 2 h 35 min
Bit rate : 34 b/s
Count of elements : 1319
Stream size : 39.6 KiB (0%)
Title : Full
Language : English
Default : No
Forced : No

Text #4
ID : 7
Format : UTF-8
Codec ID : S_TEXT/UTF8
Codec ID/Info : UTF-8 Plain Text
Duration : 2 h 38 min
Bit rate : 44 b/s
Count of elements : 1687
Stream size : 51.2 KiB (0%)
Title : SDH
Language : English
Default : No
Forced : No

Menu
00:00:00.000 : en:Глава 01
00:12:30.000 : en:Глава 02
00:25:00.000 : en:Глава 03
00:37:30.000 : en:Глава 04
00:50:00.000 : en:Глава 05
01:02:30.000 : en:Глава 06
01:15:00.000 : en:Глава 07
01:27:30.000 : en:Глава 08
01:40:00.000 : en:Глава 09
01:52:30.000 : en:Глава 10
02:05:00.000 : en:Глава 11
02:17:30.000 : en:Глава 12
02:30:00.000 : en:Глава 13
02:42:30.000 : en:Глава 14

Другие фильмы
У данной публикации пока нет комментариев.
Будь первым, оставь своё мнение в комментариях!
Информация
Посетители, находящиеся в группе Гости, не могут оставлять комментарии к данной публикации.
Самый популярный релиз недели
RePack от селезень 48.88 Gb ...

Кино копилка
...
Какую тему вы используете?

Реклама
Последние комментарии
...

dembell56

Вчера, 22:22

...

Ponta

Вчера, 17:43

...

Vostorg

Вчера, 02:43

...

Desol

5 декабря 2022 18:21

...

Ponta

5 декабря 2022 17:53

Реклама