+12

За пивом! / The Greatest Beer Run Ever (2022) WEB-DLRip-AVC от DoMiNo & селезень | D

Информация о фильме
Название: За пивом!
Оригинальное название: The Greatest Beer Run Ever
Год выхода: 2022
Жанр: Комедия, военный, драма, история
Режиссер: Питер Фаррелли
В ролях: Зак Эфрон, Рассел Кроу, Билл Мюррей, Кайл Аллен, Джейк Пикинг, Уилл Ропп, Арчи Рено, Джо Адлер

О фильме:
1967 год. Чтобы морально поддержать воюющих во Вьетнаме друзей, Чики Донохью решает самолично угостить их американским пивом. Поездка, начавшаяся как спонтанная авантюра, в корне меняет его взгляды на жизнь и войну.

Страна: США
Студия: Living Films, Skydance Productions
Продолжительность: 02:06:57
Перевод: Дублированный | AppleTV+
Субтитры: Русские (Forced, full, SDH), украинские (Full), английские

Файл
Формат: Matroska
Качество: WEB-DLRip-AVC
Видео: 720x360 at 23.976 fps, [email protected], ~740 kbps
Аудио: AAC, 2 ch, ~80 kbps - | Русский | За пивом! / The Greatest Beer Run Ever (2022) WEB-DLRip-AVC от DoMiNo & селезень | D
Формат субтитров: softsub (SRT)

За пивом! / The Greatest Beer Run Ever (2022) WEB-DLRip-AVC от DoMiNo & селезень | D

Авторизуйтесь для получения доступа к скачиванию

Нет аккаунта? Регистрация открыта и займёт меньше минуты

Вход Регистрация

x264 [info]: frame I:1644 Avg QP:16.47 size: 35645
x264 [info]: frame P:41902 Avg QP:20.52 size: 8609
x264 [info]: frame B:139087 Avg QP:22.30 size: 2040
x264 [info]: consecutive B-frames: 2,0% 2,8% 5,2% 45,7% 10,7% 22,0% 3,5% 5,9% 0,6% 0,5% 0,2% 0,5% 0,5%

General
Unique ID : 261228891166067303534708603529338107816 (0xC486DAB8E1DFC0871FE0574DD1C137A8)
Complete name : D:The.Greatest.Beer.Run.Ever.2022.WEB-DLRip.x264.seleZen.mkv
Format : Matroska
Format version : Version 4
File size : 744 MiB
Duration : 2 h 6 min
Overall bit rate : 820 kb/s
Movie name : The.Greatest.Beer.Run.Ever.2022.WEB-DLRip.x264.seleZen
Encoded date : UTC 30.09.2022 19:53:09
Writing application : mkvmerge v70.0.0 ('Caught A Lite Sneeze') 64-bit
Writing library : libebml v1.4.2 + libmatroska v1.6.4
Cover : Yes
Attachments : cover.jpg / small_cover.jpg

Video
ID : 1
Format : AVC
Format/Info : Advanced Video Codec
Format profile : [email protected]
Format settings : CABAC / 12 Ref Frames
Format settings, CABAC : Yes
Format settings, Reference : 12 frames
Codec ID : V_MPEG4/ISO/AVC
Duration : 2 h 6 min
Bit rate : 740 kb/s
Width : 720 pixels
Height : 360 pixels
Display aspect ratio : 2.000
Frame rate mode : Constant
Frame rate : 23.976 (24000/1001) FPS
Color space : YUV
Chroma subsampling : 4:2:0
Bit depth : 8 bits
Scan type : Progressive
Bits/(Pixel*Frame) : 0.119
Stream size : 671 MiB (90%)
Title : -=DoMiNo=-
Writing library : x264 core 164 r3099+55M 141af3f t_mod_New | by -=DoMiNo=- | X86_64
Encoding settings : cabac=1 / ref=12 / deblock=1:-2:-1 / analyse=0×3:0×133 / me=umh / subme=10 / psy=1 / fade_compensate=0.00 / psy_rd=1.03:0.05 / mixed_ref=1 / me_range=32 / chroma_me=1 / trellis=2 / 8×8dct=1 / cqm=0 / deadzone=21,11 / fast_pskip=0 / chroma_qp_offset=-3 / threads=16 / lookahead_threads=2 / sliced_threads=0 / nr=0 / decimate=0 / interlaced=0 / bluray_compat=0 / constrained_intra=0 / fgo=0 / bframes=12 / b_pyramid=2 / b_adapt=2 / b_bias=0 / direct=3 / weightb=1 / open_gop=0 / weightp=2 / keyint=250 / keyint_min=23 / scenecut=40 / intra_refresh=0 / rc_lookahead=60 / rc=2pass / mbtree=0 / bitrate=740 / ratetol=1.0 / qcomp=0.70 / qpmin=0:0:0 / qpmax=69:69:69 / qpstep=4 / cplxblur=20.0 / qblur=0.5 / vbv_maxrate=50000 / vbv_bufsize=62500 / nal_hrd=none / filler=0 / ip_ratio=1.40 / pb_ratio=1.30 / aq=3:0.90 / aq-sensitivity=10.00 / aq-factor=1.00:1.00:1.00 / aq2=0 / aq3=0
Language : English
Default : Yes
Forced : No
Color range : Limited
Color primaries : BT.709
Transfer characteristics : BT.709
Matrix coefficients : BT.709

Audio
ID : 2
Format : AAC LC SBR
Format/Info : Advanced Audio Codec Low Complexity with Spectral Band Replication
Commercial name : HE-AAC
Format settings : Explicit
Codec ID : A_AAC-2
Duration : 2 h 6 min
Bit rate : 78.7 kb/s
Channel (s) : 2 channels
Channel layout : L R
Sampling rate : 48.0 kHz
Frame rate : 23.438 FPS (2048 SPF)
Compression mode : Lossy
Stream size : 71.5 MiB (10%)
Title : DUB
Language : Russian
Default : Yes
Forced : Yes

Text #1
ID : 3
Format : UTF-8
Codec ID : S_TEXT/UTF8
Codec ID/Info : UTF-8 Plain Text
Duration : 2 h 6 min
Bit rate : 4 b/s
Count of elements : 75
Stream size : 4.04 KiB (0%)
Title : Forced
Language : Russian
Default : Yes
Forced : No

Text #2
ID : 4
Format : UTF-8
Codec ID : S_TEXT/UTF8
Codec ID/Info : UTF-8 Plain Text
Duration : 2 h 6 min
Bit rate : 99 b/s
Count of elements : 1615
Stream size : 92.0 KiB (0%)
Title : Full v.1
Language : Russian
Default : No
Forced : No

Text #3
ID : 5
Format : UTF-8
Codec ID : S_TEXT/UTF8
Codec ID/Info : UTF-8 Plain Text
Duration : 2 h 6 min
Bit rate : 110 b/s
Count of elements : 1801
Stream size : 102 KiB (0%)
Title : Full v.2
Language : Russian
Default : No
Forced : No

Text #4
ID : 6
Format : UTF-8
Codec ID : S_TEXT/UTF8
Codec ID/Info : UTF-8 Plain Text
Duration : 2 h 6 min
Bit rate : 91 b/s
Count of elements : 1609
Stream size : 84.3 KiB (0%)
Title : Full
Language : Ukrainian
Default : No
Forced : No

Text #5
ID : 7
Format : UTF-8
Codec ID : S_TEXT/UTF8
Codec ID/Info : UTF-8 Plain Text
Duration : 1 h 57 min
Bit rate : 66 b/s
Count of elements : 1566
Stream size : 57.3 KiB (0%)
Title : Full
Language : English
Default : No
Forced : No

Text #6
ID : 8
Format : UTF-8
Codec ID : S_TEXT/UTF8
Codec ID/Info : UTF-8 Plain Text
Duration : 1 h 57 min
Bit rate : 73 b/s
Count of elements : 1751
Stream size : 63.8 KiB (0%)
Title : SDH
Language : English
Default : No
Forced : No

Другие фильмы
У данной публикации пока нет комментариев.
Будь первым, оставь своё мнение в комментариях!
Информация
Посетители, находящиеся в группе Гости, не могут оставлять комментарии к данной публикации.
Самый популярный релиз недели
RePack от селезень 48.88 Gb ...

Кино копилка
...
Какую тему вы используете?

Реклама
Последние комментарии
...

dembell56

Вчера, 22:22

...

Ponta

Вчера, 17:43

...

Vostorg

Вчера, 02:43

...

Desol

5 декабря 2022 18:21

...

Ponta

5 декабря 2022 17:53

Реклама