+12

Тела, тела, тела / Bodies Bodies Bodies (2022) WEB-DLRip-AVC от DoMiNo & селезень | P

Информация о фильме
Название: Тела, тела, тела
Оригинальное название: Bodies Bodies Bodies
Год выпуска: 2022
Выпущено: США
Жанр: Комедия, ужасы, триллер
Режиссер: Халина Рейн / Halina Reijn
В ролях: Амандла Стенберг, Мария Бакалова, Рэйчел Сеннотт, Чейз Суи Уондерс, Пит Дэвидсон, Миха’ла Херролд, Ли Пейс, Коннер О’Мэлли

О фильме:
Компания модной молодежи отправляется потусить в доме богатенького приятеля. Веселая вечеринка оборачивается кошмаром, когда молодые люди обнаруживают, что кто-то начал сокращать их количество. Нарастают напряжение и каскад взаимных подозрений, всплывают старые обиды.

Продолжительность: 01:33:50
Перевод: Профессиональный (многоголосый, закадровый) | Jaskier — Присутствует ненормативная лексика!
Субтитры: Русские (stasslender 18+), Английские

Файл
Формат: Matroska
Качество: WEB-DLRip-AVC
Видео: 720×300 at 23.976 fps, [email protected], ~970 kbps
Аудио: AAC, 2 ch, ~128 kbps — | Русский | Тела, тела, тела / Bodies Bodies Bodies (2022) WEB-DLRip-AVC от DoMiNo & селезень | P
Формат субтитров: softsub (SRT)

Тела, тела, тела / Bodies Bodies Bodies (2022) WEB-DLRip-AVC от DoMiNo & селезень | P

Авторизуйтесь для получения доступа к скачиванию

Нет аккаунта? Регистрация открыта и займёт меньше минуты

Вход Регистрация

x264 [info]: frame I:1015 Avg QP:12.58 size: 29687
x264 [info]: frame P:31004 Avg QP:15.63 size: 10756
x264 [info]: frame B:102984 Avg QP:18.22 size: 3095
x264 [info]: consecutive B-frames: 1,8% 3,1% 7,4% 37,4% 16,4% 24,2% 4,9% 3,2% 0,7% 0,3% 0,6%

General
Unique ID : 84069587286712446492534783395846251554 (0×3F3F36ABA8270782F9CC4AAF8C216422)
Complete name : D:Tela.tela.tela.2022.WEB-DLRipBodies.Bodies.Bodies.2022.WEB-DLRip.x264.seleZen.mkv
Format : Matroska
Format version : Version 4
File size : 741 MiB
Duration : 1 h 37 min
Overall bit rate : 1 060 kb/s
Movie name : Bodies.Bodies.Bodies.2022.WEB-DLRip.x264.seleZen
Encoded date : UTC 30.09.2022 21:16:24
Writing application : mkvmerge v70.0.0 ('Caught A Lite Sneeze') 64-bit
Writing library : libebml v1.4.2 + libmatroska v1.6.4
Cover : Yes
Attachments : cover.jpg / small_cover.jpg

Video
ID : 1
Format : AVC
Format/Info : Advanced Video Codec
Format profile : [email protected]
Format settings : CABAC / 12 Ref Frames
Format settings, CABAC : Yes
Format settings, Reference : 12 frames
Codec ID : V_MPEG4/ISO/AVC
Duration : 1 h 33 min
Bit rate : 970 kb/s
Width : 720 pixels
Height : 300 pixels
Display aspect ratio : 2.40:1
Frame rate mode : Constant
Frame rate : 23.976 (24000/1001) FPS
Color space : YUV
Chroma subsampling : 4:2:0
Bit depth : 8 bits
Scan type : Progressive
Bits/(Pixel*Frame) : 0.187
Stream size : 651 MiB (88%)
Title : -=DoMiNo=-
Writing library : x264 core 164 r3099+55M 141af3f t_mod_New | by -=DoMiNo=- | X86_64
Encoding settings : cabac=1 / ref=12 / deblock=1:-2:-1 / analyse=0×3:0×133 / me=umh / subme=10 / psy=1 / fade_compensate=0.00 / psy_rd=1.03:0.05 / mixed_ref=1 / me_range=32 / chroma_me=1 / trellis=2 / 8×8dct=1 / cqm=0 / deadzone=21,11 / fast_pskip=0 / chroma_qp_offset=-3 / threads=16 / lookahead_threads=2 / sliced_threads=0 / nr=0 / decimate=0 / interlaced=0 / bluray_compat=0 / constrained_intra=0 / fgo=0 / bframes=10 / b_pyramid=2 / b_adapt=2 / b_bias=0 / direct=3 / weightb=1 / open_gop=0 / weightp=2 / keyint=250 / keyint_min=23 / scenecut=40 / intra_refresh=0 / rc_lookahead=60 / rc=2pass / mbtree=0 / bitrate=970 / ratetol=1.0 / qcomp=0.70 / qpmin=0:0:0 / qpmax=69:69:69 / qpstep=4 / cplxblur=20.0 / qblur=0.5 / vbv_maxrate=50000 / vbv_bufsize=62500 / nal_hrd=none / filler=0 / ip_ratio=1.40 / pb_ratio=1.30 / aq=3:0.80 / aq-sensitivity=10.00 / aq-factor=1.00:1.00:1.00 / aq2=0 / aq3=0
Language : English
Default : Yes
Forced : No
Color range : Limited
Color primaries : BT.709
Transfer characteristics : BT.709
Matrix coefficients : BT.709

Audio
ID : 2
Format : AAC LC SBR
Format/Info : Advanced Audio Codec Low Complexity with Spectral Band Replication
Commercial name : HE-AAC
Format settings : Explicit
Codec ID : A_AAC-2
Duration : 1 h 37 min
Bit rate : 127 kb/s
Channel (s) : 2 channels
Channel layout : L R
Sampling rate : 48.0 kHz
Frame rate : 23.438 FPS (2048 SPF)
Compression mode : Lossy
Stream size : 88.5 MiB (12%)
Title : MVO_[Jaskier]
Language : Russian
Default : Yes
Forced : Yes

Text #1
ID : 3
Format : UTF-8
Codec ID : S_TEXT/UTF8
Codec ID/Info : UTF-8 Plain Text
Duration : 1 h 33 min
Bit rate : 83 b/s
Count of elements : 1496
Stream size : 57.2 KiB (0%)
Title : Full_[stasslender 18+]
Language : Russian
Default : No
Forced : No

Text #2
ID : 4
Format : UTF-8
Codec ID : S_TEXT/UTF8
Codec ID/Info : UTF-8 Plain Text
Duration : 1 h 27 min
Bit rate : 69 b/s
Count of elements : 1586
Stream size : 44.4 KiB (0%)
Title : Full
Language : English
Default : No
Forced : No

Text #3
ID : 5
Format : UTF-8
Codec ID : S_TEXT/UTF8
Codec ID/Info : UTF-8 Plain Text
Duration : 1 h 33 min
Bit rate : 70 b/s
Count of elements : 1772
Stream size : 48.5 KiB (0%)
Title : SDH
Language : English
Default : No
Forced : No

Другие фильмы
Комментарии:

...
Dimanchez 1 октября 2022 10:12
0

Исправить и перезалить бы данный релиз.  Тот, кто спиратил русскую аудиодорожку с первоисточника продолжительностью 01:37:42 , на скорую руку вставил ее к фильму продолжительностью 01:33:50, из-за чего продолжительность фильма стала 01:37:42 - неправильная. Рассинхрона нет, рекламы нет, фильм закончиться на 01:33:50 ( включая титры ) , а с 01:33:50 по 01:37:42 будет идти звук без видео, по звуку моменты о съёмках фильма ( вот эти моменты http://sendfile.su/1659395 ). В релизе данного фильма на 1.4 Gb такой же косяк.

Информация
Посетители, находящиеся в группе Гости, не могут оставлять комментарии к данной публикации.
Самый популярный релиз недели
RePack от селезень 48.88 Gb ...

Кино копилка
...
Какую тему вы используете?

Реклама
Последние комментарии
...

dembell56

Вчера, 22:22

...

Ponta

Вчера, 17:43

...

Vostorg

Вчера, 02:43

...

Desol

5 декабря 2022 18:21

...

Ponta

5 декабря 2022 17:53

Реклама